Все Тут Online
Все Тут Online
Новые сообщения
Все сообщения за последних 24 часа
Расширенный Поиск

   
Меню сайта:
Главная
Форум
Чат
- Online приложения:
- Игры
- Выбор стиля:
- FAQ
- Для начинающих

Вернуться   Все Тут Online > CD (Компакт диски) Lossless - МУЗЫКА БЕЗ ПОТЕРИ КАЧЕСТВА > РОК МУЗЫКА (Lossless) > Зарубежный Rock (lossless)

Старый 18.03.2015, 08:20   #1
Дмитрий
Music Group
 
Аватар для Дмитрий
 

Регистрация: 12.12.2008
Адрес: Москва прошлого тысячелетия.
Сообщений: 129,508
Сказал(а) спасибо: 30,486
Поблагодарили 144,971 раз(а) в 53,680 сообщениях
Дмитрий репутация неоспоримаДмитрий репутация неоспоримаДмитрий репутация неоспоримаДмитрий репутация неоспоримаДмитрий репутация неоспоримаДмитрий репутация неоспоримаДмитрий репутация неоспоримаДмитрий репутация неоспоримаДмитрий репутация неоспоримаДмитрий репутация неоспоримаДмитрий репутация неоспорима
По умолчанию Toto - Legend (The Best Of) [Columbia, 485 122 2, EU] - 1996 [lossless]

Toto - Legend (The Best Of) [Columbia, 485 122 2, EU] - 1996



Жанр: AOR
Носитель: CD
Страна-производитель диска (релиза): EU
Год издания: 1996
Издатель (лейбл): Columbia/Sony Music
Номер по каталогу: 485 122 2
Страна исполнителя (группы): USA
Аудиокодек: FLAC (*.flac)
Тип рипа: tracks+.cue
Битрейт аудио: lossless
Продолжительность: 01:12:09
Источник (релизер): waffles.fm
Наличие сканов в содержимом раздачи: Front/Back

Треклист:

01. Africa
02. Hold The Line
03. Georgy Porgy
04. I'll Be Over You
05. Rosanna
06. Waiting For Your Love
07. Stranger In Town
08. I Won't Hold You Back
09. Stop Loving You
10. 99
11. Pamela
12. Don't Chain My Heart
13. 2 Hearts
14. I Will Remember
15. The Turning Point


CUE:

Код:
REM GENRE Rock
REM DATE 1996
REM DISCID D611030F
REM COMMENT "ExactAudioCopy v1.0b3"
CATALOG 5099748512222
PERFORMER "Toto"
TITLE "Legend"
FILE "01 - Africa.flac" FLAC
  TRACK 01 AUDIO
    TITLE "Africa"
    PERFORMER "Toto"
    INDEX 01 00:00:00
  TRACK 02 AUDIO
    TITLE "Hold The Line"
    PERFORMER "Toto"
    INDEX 00 04:56:47
FILE "02 - Hold The Line.flac" FLAC
    INDEX 01 00:00:00
  TRACK 03 AUDIO
    TITLE "Georgy Porgy"
    PERFORMER "Toto"
    INDEX 00 03:55:62
FILE "03 - Georgy Porgy.flac" FLAC
    INDEX 01 00:00:00
  TRACK 04 AUDIO
    TITLE "I'll Be Over You"
    PERFORMER "Toto"
    INDEX 00 04:07:60
FILE "04 - I'll Be Over You.flac" FLAC
    INDEX 01 00:00:00
  TRACK 05 AUDIO
    TITLE "Rosanna"
    PERFORMER "Toto"
    INDEX 00 03:48:00
FILE "05 - Rosanna.flac" FLAC
    INDEX 01 00:00:00
  TRACK 06 AUDIO
    TITLE "Waiting For Your Love"
    PERFORMER "Toto"
    INDEX 00 05:28:42
FILE "06 - Waiting For Your Love.flac" FLAC
    INDEX 01 00:00:00
  TRACK 07 AUDIO
    TITLE "Stranger In Town"
    PERFORMER "Toto"
    INDEX 00 04:10:40
FILE "07 - Stranger In Town.flac" FLAC
    INDEX 01 00:00:00
  TRACK 08 AUDIO
    TITLE "I Won't Hold You Back"
    PERFORMER "Toto"
    INDEX 00 04:45:50
FILE "08 - I Won't Hold You Back.flac" FLAC
    INDEX 01 00:00:00
  TRACK 09 AUDIO
    TITLE "Stop Loving You"
    PERFORMER "Toto"
    INDEX 00 04:51:58
FILE "09 - Stop Loving You.flac" FLAC
    INDEX 01 00:00:00
  TRACK 10 AUDIO
    TITLE "99"
    PERFORMER "Toto"
    INDEX 00 04:25:38
FILE "10 - 99.flac" FLAC
    INDEX 01 00:00:00
  TRACK 11 AUDIO
    TITLE "Pamela"
    PERFORMER "Toto"
    INDEX 00 05:12:40
FILE "11 - Pamela.flac" FLAC
    INDEX 01 00:00:00
  TRACK 12 AUDIO
    TITLE "Don't Chain My Heart"
    PERFORMER "Toto"
    INDEX 00 05:07:33
FILE "12 - Don't Chain My Heart.flac" FLAC
    INDEX 01 00:00:00
  TRACK 13 AUDIO
    TITLE "2 Hearts"
    PERFORMER "Toto"
    INDEX 00 04:40:72
FILE "13 - 2 Hearts.flac" FLAC
    INDEX 01 00:00:00
  TRACK 14 AUDIO
    TITLE "I Will Remember"
    PERFORMER "Toto"
    INDEX 00 05:09:00
FILE "14 - I Will Remember.flac" FLAC
    INDEX 01 00:00:00
  TRACK 15 AUDIO
    TITLE "The Turning Point"
    PERFORMER "Toto"
    INDEX 00 06:04:58
FILE "15 - The Turning Point.flac" FLAC
    INDEX 01 00:00:00


Скрытый текст (вы должны зарегистрироваться или войти под своим логином):
У вас нет прав чтобы видеть скрытый текст, содержащейся здесь.
Дмитрий вне форума   Ответить с цитированием
12 пользователя(ей) сказали cпасибо:
Евгений80 (18.03.2015), Бархан (05.11.2019), Андрей В. (06.11.2019), Denis1985 (09.06.2016), Evgeny777 (08.06.2016), kopilovoleg (18.03.2015), michmi2 (25.06.2017), ТОМ (27.03.2019), omlet (05.05.2016), petrov-vodkin (20.03.2015), sKOLOSD (06.11.2019), vto69 (17.07.2016)
Старый 08.06.2016, 20:52   #2
Evgeny777
Новичок
 

Регистрация: 08.06.2016
Сообщений: 1
Сказал(а) спасибо: 1
Поблагодарили 1 раз в 1 сообщении
Evgeny777 на пути к лучшему
По умолчанию

Evgeny777 вне форума   Ответить с цитированием
Пользователь сказал cпасибо:
omlet (15.02.2017)
Старый 05.11.2019, 14:45   #3
vcv10
VIP
 

Регистрация: 01.10.2018
Адрес: Барнаул
Сообщений: 236
Сказал(а) спасибо: 560
Поблагодарили 112 раз(а) в 70 сообщениях
vcv10 - это имя известно всемvcv10 - это имя известно всемvcv10 - это имя известно всемvcv10 - это имя известно всемvcv10 - это имя известно всемvcv10 - это имя известно всем
По умолчанию

Обновите пожалуйста
vcv10 вне форума   Ответить с цитированием
Старый 05.11.2019, 15:16   #4
Дмитрий
Music Group
 
Аватар для Дмитрий
 

Регистрация: 12.12.2008
Адрес: Москва прошлого тысячелетия.
Сообщений: 129,508
Сказал(а) спасибо: 30,486
Поблагодарили 144,971 раз(а) в 53,680 сообщениях
Дмитрий репутация неоспоримаДмитрий репутация неоспоримаДмитрий репутация неоспоримаДмитрий репутация неоспоримаДмитрий репутация неоспоримаДмитрий репутация неоспоримаДмитрий репутация неоспоримаДмитрий репутация неоспоримаДмитрий репутация неоспоримаДмитрий репутация неоспоримаДмитрий репутация неоспорима
По умолчанию

Обновил, пожалуйста
Дмитрий вне форума   Ответить с цитированием
Пользователь сказал cпасибо:
vcv10 (06.11.2019)
Старый 06.11.2019, 12:28   #5
vcv10
VIP
 

Регистрация: 01.10.2018
Адрес: Барнаул
Сообщений: 236
Сказал(а) спасибо: 560
Поблагодарили 112 раз(а) в 70 сообщениях
vcv10 - это имя известно всемvcv10 - это имя известно всемvcv10 - это имя известно всемvcv10 - это имя известно всемvcv10 - это имя известно всемvcv10 - это имя известно всем
По умолчанию

Дмитрий, Спасибо!!!!
vcv10 вне форума   Ответить с цитированием
Ответ

Закладки

Опции темы
Опции просмотра

Ваши права в разделе
Вы не можете создавать новые темы
Вы не можете отвечать в темах
Вы не можете прикреплять вложения
Вы не можете редактировать свои сообщения

BB коды Вкл.
Смайлы Вкл.
[IMG] код Вкл.
HTML код Выкл.

Быстрый переход


Часовой пояс GMT, время: 22:44.


Powered by vBulletin® Version 3.8.2
Copyright ©2000 - 2019, Jelsoft Enterprises Ltd. Перевод: zCarot
Rambler's Top100 Республика Татарстан - Каталог сайтов