Все Тут Online

   
Меню сайта:
Главная
Форум
Чат
- Online приложения:
- Игры
- Выбор стиля:
- FAQ
- Для начинающих

Вернуться   Все Тут Online > ОЦИФРОВКИ ВИНИЛА (Lossless) > Оцифровки ВИНИЛА пользователей нашего форума > В гостях у Вячеслава (ник bobrovich) > Раздел собственных оцифровок с винила

загрузка...
Ответ
 
Опции темы Опции просмотра
Старый 09.10.2017, 13:19   #1
Дмитрий
Music Group
 
Аватар для Дмитрий
 

Регистрация: 12.12.2008
Адрес: Москва прошлого тысячелетия.
Сообщений: 103,014
Сказал(а) спасибо: 23,285
Поблагодарили 102,965 раз(а) в 41,411 сообщениях
Дмитрий репутация неоспоримаДмитрий репутация неоспоримаДмитрий репутация неоспоримаДмитрий репутация неоспоримаДмитрий репутация неоспоримаДмитрий репутация неоспоримаДмитрий репутация неоспоримаДмитрий репутация неоспоримаДмитрий репутация неоспоримаДмитрий репутация неоспоримаДмитрий репутация неоспорима
Отправить сообщение для Дмитрий с помощью Skype™
По умолчанию [24/192] Mike Mareen - LP Dance Control - 1985 (SP LP 0028) [WAV]

загрузка...




Треклист:

01 Mike Mareen - Here I Am
02 Mike Mareen - Cecilia (Remix)
03 Mike Mareen - Double Trouble
04 Mike Mareen - Peace To Mankind
05 Mike Mareen - Dancin' In The Dark
06 Mike Mareen - Midnight Runners
07 Mike Mareen - Back To Happy Days
08 Mike Mareen - Walkin' Highway 301
09 Mike Mareen - Days I Remember

Ссылка WAVE:

Скрытый текст (вы должны зарегистрироваться или войти под своим логином):
У вас нет прав чтобы видеть скрытый текст, содержащейся здесь.


Ссылка mp3 для ознакомления:

Скрытый текст (вы должны зарегистрироваться или войти под своим логином):
У вас нет прав чтобы видеть скрытый текст, содержащейся здесь.


Оцифровка очень даже...!
__________________










Ccылка на тему: Как скачивать с Яндекс диска!

Чтобы быстро скачать чужой опубликованный файл, сохраните его на свой Диск. На вашем Диске файл окажется мгновенно, а свои файлы вы всегда можете скачать без ограничений. Для этого нужно пройти регистрацию на https://mail.yandex.ru/

Уж лучше голодать, чем что попало есть... И лучше одному, чем вместе с кем попало.

Не работают ссылки, не надо флудить в теме. Сообщите ЗДЕСЬ!




Форум не против размещения раздач на других ресурсах. Скачал и не оставил комментарий - понизил релизёру мотивацию делиться с окружающими!

Команда Все Тут желает Вам приятного прослушивания!



Дмитрий вне форума   Ответить с цитированием
4 пользователя(ей) сказали cпасибо:
bobrovich (09.10.2017), Круиз (12.10.2017), Максkg (15.10.2017), SkyNet-177 (10.10.2017)
Старый 09.10.2017, 13:22   #2
Дмитрий
Music Group
 
Аватар для Дмитрий
 

Регистрация: 12.12.2008
Адрес: Москва прошлого тысячелетия.
Сообщений: 103,014
Сказал(а) спасибо: 23,285
Поблагодарили 102,965 раз(а) в 41,411 сообщениях
Дмитрий репутация неоспоримаДмитрий репутация неоспоримаДмитрий репутация неоспоримаДмитрий репутация неоспоримаДмитрий репутация неоспоримаДмитрий репутация неоспоримаДмитрий репутация неоспоримаДмитрий репутация неоспоримаДмитрий репутация неоспоримаДмитрий репутация неоспоримаДмитрий репутация неоспорима
Отправить сообщение для Дмитрий с помощью Skype™
По умолчанию

Код:
REM GENRE "Synth-pop, Disco"
REM DATE 1985
REM COMMENT "Оцифровка - Слава Бобров"
TITLE "LP Dance Control"
PERFORMER "Mike Mareen"
FILE "1985.wav" WAVE
  TRACK 01 AUDIO
TITLE "Here I Am"
PERFORMER "Mike Mareen"
    INDEX 01 00:00:00
  TRACK 02 AUDIO
TITLE "Cecilia (Remix)"
PERFORMER "Mike Mareen"
    INDEX 01 05:08:26
  TRACK 03 AUDIO
TITLE "Double Trouble"
PERFORMER "Mike Mareen"
    INDEX 01 11:58:30
  TRACK 04 AUDIO
TITLE "Peace To Mankind"
PERFORMER "Mike Mareen"
    INDEX 01 17:22:61
  TRACK 05 AUDIO
TITLE "Dancin' In The Dark"
PERFORMER "Mike Mareen"
    INDEX 01 22:05:65
  TRACK 06 AUDIO
TITLE "Midnight Runners"
PERFORMER "Mike Mareen"
    INDEX 01 27:42:68
  TRACK 07 AUDIO
TITLE "Back To Happy Days"
PERFORMER "Mike Mareen"
    INDEX 01 31:21:53
  TRACK 08 AUDIO
TITLE "Walkin' Highway 301"
PERFORMER "Mike Mareen"
    INDEX 01 36:14:56
  TRACK 09 AUDIO
TITLE "Days I Remember"
PERFORMER "Mike Mareen"
    INDEX 01 40:55:59
__________________










Ccылка на тему: Как скачивать с Яндекс диска!

Чтобы быстро скачать чужой опубликованный файл, сохраните его на свой Диск. На вашем Диске файл окажется мгновенно, а свои файлы вы всегда можете скачать без ограничений. Для этого нужно пройти регистрацию на https://mail.yandex.ru/

Уж лучше голодать, чем что попало есть... И лучше одному, чем вместе с кем попало.

Не работают ссылки, не надо флудить в теме. Сообщите ЗДЕСЬ!




Форум не против размещения раздач на других ресурсах. Скачал и не оставил комментарий - понизил релизёру мотивацию делиться с окружающими!

Команда Все Тут желает Вам приятного прослушивания!



Дмитрий вне форума   Ответить с цитированием
Пользователь сказал cпасибо:
SkyNet-177 (10.10.2017)
Старый 10.10.2017, 05:06   #3
Дмитрий
Music Group
 
Аватар для Дмитрий
 

Регистрация: 12.12.2008
Адрес: Москва прошлого тысячелетия.
Сообщений: 103,014
Сказал(а) спасибо: 23,285
Поблагодарили 102,965 раз(а) в 41,411 сообщениях
Дмитрий репутация неоспоримаДмитрий репутация неоспоримаДмитрий репутация неоспоримаДмитрий репутация неоспоримаДмитрий репутация неоспоримаДмитрий репутация неоспоримаДмитрий репутация неоспоримаДмитрий репутация неоспоримаДмитрий репутация неоспоримаДмитрий репутация неоспоримаДмитрий репутация неоспорима
Отправить сообщение для Дмитрий с помощью Skype™
По умолчанию

Как Вам очередная дискотека 80-xx?
Кто уже послушал?
__________________










Ccылка на тему: Как скачивать с Яндекс диска!

Чтобы быстро скачать чужой опубликованный файл, сохраните его на свой Диск. На вашем Диске файл окажется мгновенно, а свои файлы вы всегда можете скачать без ограничений. Для этого нужно пройти регистрацию на https://mail.yandex.ru/

Уж лучше голодать, чем что попало есть... И лучше одному, чем вместе с кем попало.

Не работают ссылки, не надо флудить в теме. Сообщите ЗДЕСЬ!




Форум не против размещения раздач на других ресурсах. Скачал и не оставил комментарий - понизил релизёру мотивацию делиться с окружающими!

Команда Все Тут желает Вам приятного прослушивания!



Дмитрий вне форума   Ответить с цитированием
Старый 10.10.2017, 12:55   #4
SkyNet-177
Новичок
 

Регистрация: 01.01.2017
Сообщений: 14
Сказал(а) спасибо: 196
Поблагодарили 10 раз(а) в 6 сообщениях
SkyNet-177 скоро придёт к известности
По умолчанию

Это не очередная дискотека, Дима - это классика eurodisco, один из самых элитных и значимых альбомов данного направления, который смело можно ставить в один ряд и с Bad Boys Blue, и с Silent Circle!!!
SkyNet-177 вне форума   Ответить с цитированием
Пользователь сказал cпасибо:
Дмитрий (10.10.2017)
Старый 10.10.2017, 13:01   #5
glot39
Модератор и оцифровщик Винила.
 
Аватар для glot39
 

Регистрация: 14.12.2014
Адрес: Москва
Сообщений: 2,039
Сказал(а) спасибо: 2,690
Поблагодарили 5,275 раз(а) в 1,182 сообщениях
glot39 репутация неоспоримаglot39 репутация неоспоримаglot39 репутация неоспоримаglot39 репутация неоспоримаglot39 репутация неоспоримаglot39 репутация неоспоримаglot39 репутация неоспоримаglot39 репутация неоспоримаglot39 репутация неоспоримаglot39 репутация неоспоримаglot39 репутация неоспорима
По умолчанию

Это переиздание и похоже даже российское. Интересно послушать качество.
glot39 вне форума   Ответить с цитированием
Ответ

Закладки

Опции темы
Опции просмотра

Ваши права в разделе
Вы не можете создавать новые темы
Вы не можете отвечать в темах
Вы не можете прикреплять вложения
Вы не можете редактировать свои сообщения

BB коды Вкл.
Смайлы Вкл.
[IMG] код Вкл.
HTML код Выкл.

Быстрый переход


Часовой пояс GMT, время: 03:49.


Powered by vBulletin® Version 3.8.2
Copyright ©2000 - 2017, Jelsoft Enterprises Ltd. Перевод: zCarot
Rambler's Top100 Республика Татарстан - Каталог сайтов