Все Тут Online

   
Меню сайта:
Главная
Форум
Чат
- Online приложения:
- Игры
- Выбор стиля:
- FAQ
- Для начинающих

Вернуться   Все Тут Online > ОЦИФРОВКИ ВИНИЛА (Lossless) > Оцифровки ВИНИЛА пользователей нашего форума > В гостях у Вячеслава (ник bobrovich) > Раздел собственных оцифровок с винила

загрузка...
Ответ
 
Опции темы Опции просмотра
Старый 10.10.2017, 08:01   #1
Дмитрий
Music Group
 
Аватар для Дмитрий
 

Регистрация: 12.12.2008
Адрес: Москва прошлого тысячелетия.
Сообщений: 99,414
Сказал(а) спасибо: 22,786
Поблагодарили 99,086 раз(а) в 40,072 сообщениях
Дмитрий репутация неоспоримаДмитрий репутация неоспоримаДмитрий репутация неоспоримаДмитрий репутация неоспоримаДмитрий репутация неоспоримаДмитрий репутация неоспоримаДмитрий репутация неоспоримаДмитрий репутация неоспоримаДмитрий репутация неоспоримаДмитрий репутация неоспоримаДмитрий репутация неоспорима
Отправить сообщение для Дмитрий с помощью Skype™
По умолчанию [24/192] Melotron - Kindertraum - The Early Years (2015) (SP LP 0026) [WAV]

загрузка...





Треклист:

A1 Kindertraum (Maxi Version) 6:30
A2 Dein Meister (Extended Version) 4:31
A3 2 Young 2 Die 4:25
A4 Es Wird Zeit 4:56

B1 Auf Der Suche 3:33
B2 Alles Von Dir 4:12
B3 Sie Ist ... 3:47
B4 Tanz Mit Dem Teufel 3:58
B5 Der Blaue Planet (Lange Version) 6:09




Ссылка WAVE:

Скрытый текст (вы должны зарегистрироваться или войти под своим логином):
У вас нет прав чтобы видеть скрытый текст, содержащейся здесь.


Ссылка mp3 для ознакомления:

Скрытый текст (вы должны зарегистрироваться или войти под своим логином):
У вас нет прав чтобы видеть скрытый текст, содержащейся здесь.


__________________









Ccылка на тему: Как скачивать с Яндекс диска!

Чтобы быстро скачать чужой опубликованный файл, сохраните его на свой Диск. На вашем Диске файл окажется мгновенно, а свои файлы вы всегда можете скачать без ограничений. Для этого нужно пройти регистрацию на https://www.yandex.ru/

Если вам нечего делать, то не надо делать это у нас на форуме!!!
Водитель в России должен уметь обруливать ямы, уворачиваться от обруливающих ямы, от лихачей, пешеходов и долбо...бов...


Не работают ссылки, не надо флудить в теме. Сообщите ЗДЕСЬ!




Форум не против размещения раздач на других ресурсах. Скачал и не оставил комментарий - понизил релизёру мотивацию делиться с окружающими!

Команда Все Тут желает Вам приятного прослушивания!


Дмитрий вне форума   Ответить с цитированием
Пользователь сказал cпасибо:
Алексей 69 (10.10.2017)
Старый 10.10.2017, 08:17   #2
Дмитрий
Music Group
 
Аватар для Дмитрий
 

Регистрация: 12.12.2008
Адрес: Москва прошлого тысячелетия.
Сообщений: 99,414
Сказал(а) спасибо: 22,786
Поблагодарили 99,086 раз(а) в 40,072 сообщениях
Дмитрий репутация неоспоримаДмитрий репутация неоспоримаДмитрий репутация неоспоримаДмитрий репутация неоспоримаДмитрий репутация неоспоримаДмитрий репутация неоспоримаДмитрий репутация неоспоримаДмитрий репутация неоспоримаДмитрий репутация неоспоримаДмитрий репутация неоспоримаДмитрий репутация неоспорима
Отправить сообщение для Дмитрий с помощью Skype™
По умолчанию

Код:
REM GENRE "Synth-pop"
REM DATE 2015
REM COMMENT "Слава Бобров"
TITLE "Kindertraum - The Early Years"
PERFORMER "Melotron"
FILE "2015.wav" WAVE
  TRACK 01 AUDIO
TITLE "Kindertraum (Maxi Version)"
PERFORMER "Melotron"
    INDEX 01 00:00:00
  TRACK 02 AUDIO
TITLE "Dein Meister (Extended Version)"
PERFORMER "Melotron"
    INDEX 01 06:35:51
  TRACK 03 AUDIO
TITLE "2 Young 2 Die"
PERFORMER "Melotron"
    INDEX 01 11:05:71
  TRACK 04 AUDIO
TITLE "Es Wird Zeit"
PERFORMER "Melotron"
    INDEX 01 15:33:67
  TRACK 05 AUDIO
TITLE "Auf Der Suches"
PERFORMER "Melotron"
    INDEX 01 20:32:10
  TRACK 06 AUDIO
TITLE "Alles Von Dir"
PERFORMER "Melotron"
    INDEX 01 24:07:09
  TRACK 07 AUDIO
TITLE "Sie Ist ..."
PERFORMER "Melotron"
    INDEX 01 28:24:10
  TRACK 08 AUDIO
TITLE "Tanz Mit Dem Teufel"
PERFORMER "Melotron"
    INDEX 01 32:14:41
  TRACK 09 AUDIO
TITLE "Der Blaue Planet (Lange Version)"
PERFORMER "Melotron"
    INDEX 01 36:13:16
__________________









Ccылка на тему: Как скачивать с Яндекс диска!

Чтобы быстро скачать чужой опубликованный файл, сохраните его на свой Диск. На вашем Диске файл окажется мгновенно, а свои файлы вы всегда можете скачать без ограничений. Для этого нужно пройти регистрацию на https://www.yandex.ru/

Если вам нечего делать, то не надо делать это у нас на форуме!!!
Водитель в России должен уметь обруливать ямы, уворачиваться от обруливающих ямы, от лихачей, пешеходов и долбо...бов...


Не работают ссылки, не надо флудить в теме. Сообщите ЗДЕСЬ!




Форум не против размещения раздач на других ресурсах. Скачал и не оставил комментарий - понизил релизёру мотивацию делиться с окружающими!

Команда Все Тут желает Вам приятного прослушивания!


Дмитрий вне форума   Ответить с цитированием
Старый 10.10.2017, 08:19   #3
Дмитрий
Music Group
 
Аватар для Дмитрий
 

Регистрация: 12.12.2008
Адрес: Москва прошлого тысячелетия.
Сообщений: 99,414
Сказал(а) спасибо: 22,786
Поблагодарили 99,086 раз(а) в 40,072 сообщениях
Дмитрий репутация неоспоримаДмитрий репутация неоспоримаДмитрий репутация неоспоримаДмитрий репутация неоспоримаДмитрий репутация неоспоримаДмитрий репутация неоспоримаДмитрий репутация неоспоримаДмитрий репутация неоспоримаДмитрий репутация неоспоримаДмитрий репутация неоспоримаДмитрий репутация неоспорима
Отправить сообщение для Дмитрий с помощью Skype™
По умолчанию

Он лайн прослушка
в первом посту
__________________









Ccылка на тему: Как скачивать с Яндекс диска!

Чтобы быстро скачать чужой опубликованный файл, сохраните его на свой Диск. На вашем Диске файл окажется мгновенно, а свои файлы вы всегда можете скачать без ограничений. Для этого нужно пройти регистрацию на https://www.yandex.ru/

Если вам нечего делать, то не надо делать это у нас на форуме!!!
Водитель в России должен уметь обруливать ямы, уворачиваться от обруливающих ямы, от лихачей, пешеходов и долбо...бов...


Не работают ссылки, не надо флудить в теме. Сообщите ЗДЕСЬ!




Форум не против размещения раздач на других ресурсах. Скачал и не оставил комментарий - понизил релизёру мотивацию делиться с окружающими!

Команда Все Тут желает Вам приятного прослушивания!


Дмитрий вне форума   Ответить с цитированием
Старый 10.10.2017, 08:21   #4
Дмитрий
Music Group
 
Аватар для Дмитрий
 

Регистрация: 12.12.2008
Адрес: Москва прошлого тысячелетия.
Сообщений: 99,414
Сказал(а) спасибо: 22,786
Поблагодарили 99,086 раз(а) в 40,072 сообщениях
Дмитрий репутация неоспоримаДмитрий репутация неоспоримаДмитрий репутация неоспоримаДмитрий репутация неоспоримаДмитрий репутация неоспоримаДмитрий репутация неоспоримаДмитрий репутация неоспоримаДмитрий репутация неоспоримаДмитрий репутация неоспоримаДмитрий репутация неоспоримаДмитрий репутация неоспорима
Отправить сообщение для Дмитрий с помощью Skype™
По умолчанию

Как Вам низы?
отписывайтесь пожалуйста!
__________________









Ccылка на тему: Как скачивать с Яндекс диска!

Чтобы быстро скачать чужой опубликованный файл, сохраните его на свой Диск. На вашем Диске файл окажется мгновенно, а свои файлы вы всегда можете скачать без ограничений. Для этого нужно пройти регистрацию на https://www.yandex.ru/

Если вам нечего делать, то не надо делать это у нас на форуме!!!
Водитель в России должен уметь обруливать ямы, уворачиваться от обруливающих ямы, от лихачей, пешеходов и долбо...бов...


Не работают ссылки, не надо флудить в теме. Сообщите ЗДЕСЬ!




Форум не против размещения раздач на других ресурсах. Скачал и не оставил комментарий - понизил релизёру мотивацию делиться с окружающими!

Команда Все Тут желает Вам приятного прослушивания!


Дмитрий вне форума   Ответить с цитированием
Ответ

Закладки

Опции темы
Опции просмотра

Ваши права в разделе
Вы не можете создавать новые темы
Вы не можете отвечать в темах
Вы не можете прикреплять вложения
Вы не можете редактировать свои сообщения

BB коды Вкл.
Смайлы Вкл.
[IMG] код Вкл.
HTML код Выкл.

Быстрый переход


Часовой пояс GMT, время: 07:31.


Powered by vBulletin® Version 3.8.2
Copyright ©2000 - 2017, Jelsoft Enterprises Ltd. Перевод: zCarot
Rambler's Top100 Республика Татарстан - Каталог сайтов