Все Тут Online
Все Тут Online
Новые сообщения
Все сообщения за последних 24 часа
Расширенный Поиск

   
Меню сайта:
Главная
Форум
Чат
- Online приложения:
- Игры
- Выбор стиля:
- FAQ
- Для начинающих

Вернуться   Все Тут Online > ОЦИФРОВКИ ВИНИЛА (Lossless) > ШАНСОН, АВТОРСКАЯ и ВОЕННАЯ ПЕСНЯ (Lossless) > Отечественный шансон (lossless)

Ответ
 
Опции темы Опции просмотра
Старый 21.03.2011, 10:45   #1
Дмитрий
Music Group
 
Аватар для Дмитрий
 

Регистрация: 12.12.2008
Адрес: Москва прошлого тысячелетия.
Сообщений: 133,749
Сказал(а) спасибо: 31,241
Поблагодарили 149,033 раз(а) в 55,093 сообщениях
Дмитрий репутация неоспоримаДмитрий репутация неоспоримаДмитрий репутация неоспоримаДмитрий репутация неоспоримаДмитрий репутация неоспоримаДмитрий репутация неоспоримаДмитрий репутация неоспоримаДмитрий репутация неоспоримаДмитрий репутация неоспоримаДмитрий репутация неоспоримаДмитрий репутация неоспорима
По умолчанию [LP] VA - Music of Russia -The Balalaikas (1968) (wav)

[LP] VA - Music of Russia -The Balalaikas (1968) (wav)

Все Благодарности за запись нику ne vazno)), ну и конечно Максу





Код:
REM DATE 1968
REM COMMENT USA, Tifton LSS TS 68  (оцифровка miramax31)
PERFORMER "The Balalaikas"
TITLE "Music of Russia"
FILE "01.flac" WAVE
  TRACK 01 AUDIO
    TITLE "Caki Voli"
    INDEX 01 00:00:00
  TRACK 02 AUDIO
    TITLE "Etem Pletem"
    INDEX 01 04:31:67
  TRACK 03 AUDIO
    TITLE "Nad Prasnom Konalu"
    INDEX 01 09:33:28
FILE "02.flac" WAVE
  TRACK 04 AUDIO
    TITLE "Bracanina Dva"
    INDEX 01 00:00:00
  TRACK 05 AUDIO
    TITLE "Tari Bari"
    INDEX 01 02:55:00
  TRACK 06 AUDIO
    TITLE "Ajme"
    INDEX 01 06:14:64
  TRACK 07 AUDIO
    TITLE "Oru"
    INDEX 01 08:47:27
Скачать:

Скрытый текст (вы должны войти под своим логином или зарегистрироваться и иметь 1 сообщение(ий)):
У вас нет прав чтобы видеть скрытый текст, содержащейся здесь.
Дмитрий вне форума   Ответить с цитированием
12 пользователя(ей) сказали cпасибо:
Д.Исакович (10.10.2015), васил (30.01.2017), Владимир 1733 (20.07.2014), Григорий56 (03.12.2019), дрон (20.07.2014), Denis1985 (19.07.2014), искатель (30.12.2013), kopilovoleg (27.01.2017), Синдикат (06.10.2013), oblom123 (06.10.2013), qwer-70 (07.10.2013), ViktorSt56 (06.12.2019)
Старый 06.10.2013, 08:22   #2
vinny
Новичок
 

Регистрация: 27.07.2013
Сообщений: 5
Сказал(а) спасибо: 23
Поблагодарили 0 раз(а) в 0 сообщениях
vinny на пути к лучшему
По умолчанию

спасибо!
vinny вне форума   Ответить с цитированием
Старый 19.07.2014, 13:52   #3
Сара
Новичок
 

Регистрация: 19.07.2014
Сообщений: 13
Сказал(а) спасибо: 20
Поблагодарили 44 раз(а) в 12 сообщениях
Сара - весьма и весьма положительная личностьСара - весьма и весьма положительная личностьСара - весьма и весьма положительная личность
По умолчанию

Спасибо Вам
Сара вне форума   Ответить с цитированием
Старый 10.11.2014, 20:33   #4
Владимир1946
Новичок
 

Регистрация: 10.11.2014
Сообщений: 1
Сказал(а) спасибо: 0
Поблагодарили 1 раз в 1 сообщении
Владимир1946 на пути к лучшему
По умолчанию

меня интересует творчество Зины Павловой.
Владимир1946 вне форума   Ответить с цитированием
Пользователь сказал cпасибо:
Дмитрий (10.11.2014)
Старый 26.01.2017, 20:13   #5
SVD
Новичок
 

Регистрация: 26.01.2017
Сообщений: 11
Сказал(а) спасибо: 1
Поблагодарили 0 раз(а) в 0 сообщениях
SVD на пути к лучшему
По умолчанию

Спасибо!
SVD вне форума   Ответить с цитированием
Старый 03.12.2019, 00:24   #6
Григорий56
Новичок
 

Регистрация: 09.10.2018
Сообщений: 3
Сказал(а) спасибо: 68
Поблагодарили 1 раз в 1 сообщении
Григорий56 на пути к лучшему
По умолчанию

Спасибо!
Григорий56 вне форума   Ответить с цитированием
Старый 04.12.2019, 08:56   #7
аист
Модератор
 

Регистрация: 15.12.2009
Сообщений: 391
Сказал(а) спасибо: 1,182
Поблагодарили 459 раз(а) в 200 сообщениях
аист репутация неоспоримааист репутация неоспоримааист репутация неоспоримааист репутация неоспоримааист репутация неоспоримааист репутация неоспоримааист репутация неоспоримааист репутация неоспоримааист репутация неоспоримааист репутация неоспоримааист репутация неоспорима
По умолчанию

Кстати, Мах недавно выложил снова с десяток своих оцифровок пластинок "ne vazno". Куи я сделал.
Для этой пластинки ниже (только файлы свои укажите)
Код:
REM DATE 1968
REM COMMENT USA, Tifton LSS TS 68  (оцифровка miramax31)
PERFORMER "The Balalaikas"
TITLE "Music of Russia"
FILE "01.flac" WAVE
  TRACK 01 AUDIO
    TITLE "Caki Voli"
    INDEX 01 00:00:00
  TRACK 02 AUDIO
    TITLE "Etem Pletem"
    INDEX 01 04:31:67
  TRACK 03 AUDIO
    TITLE "Nad Prasnom Konalu"
    INDEX 01 09:33:28
FILE "02.flac" WAVE
  TRACK 04 AUDIO
    TITLE "Bracanina Dva"
    INDEX 01 00:00:00
  TRACK 05 AUDIO
    TITLE "Tari Bari"
    INDEX 01 02:55:00
  TRACK 06 AUDIO
    TITLE "Ajme"
    INDEX 01 06:14:64
  TRACK 07 AUDIO
    TITLE "Oru"
    INDEX 01 08:47:27
__________________
Мои старые ссылки удалены. Заинтересованные обращаются в личку или на сайт.

Последний раз редактировалось аист; 04.12.2019 в 09:16.
аист вне форума   Ответить с цитированием
Старый 04.12.2019, 12:19   #8
Alex95
Новичок
 

Регистрация: 15.10.2019
Сообщений: 24
Сказал(а) спасибо: 5
Поблагодарили 2 раз(а) в 2 сообщениях
Alex95 на пути к лучшему
По умолчанию

Обновите, пожалуйста!!! Спасибо!
Alex95 вне форума   Ответить с цитированием
Старый 04.12.2019, 16:52   #9
аист
Модератор
 

Регистрация: 15.12.2009
Сообщений: 391
Сказал(а) спасибо: 1,182
Поблагодарили 459 раз(а) в 200 сообщениях
аист репутация неоспоримааист репутация неоспоримааист репутация неоспоримааист репутация неоспоримааист репутация неоспоримааист репутация неоспоримааист репутация неоспоримааист репутация неоспоримааист репутация неоспоримааист репутация неоспоримааист репутация неоспорима
По умолчанию

Цитата:
Сообщение от Alex95 Посмотреть сообщение
Обновите, пожалуйста!!! Спасибо!
Скрытый текст (вы должны войти под своим логином или зарегистрироваться и иметь 2 сообщение(ий)):
У вас нет прав чтобы видеть скрытый текст, содержащейся здесь.
__________________
Мои старые ссылки удалены. Заинтересованные обращаются в личку или на сайт.
аист вне форума   Ответить с цитированием
3 пользователя(ей) сказали cпасибо:
Дмитрий (04.12.2019), sr2014 (04.12.2019), tem (04.12.2019)
Старый 04.12.2019, 17:02   #10
sr2014
Новичок
 

Регистрация: 15.06.2014
Сообщений: 29
Сказал(а) спасибо: 7
Поблагодарили 6 раз(а) в 6 сообщениях
sr2014 на пути к лучшему
По умолчанию

Спасибо!
sr2014 вне форума   Ответить с цитированием
Ответ

Закладки

Опции темы
Опции просмотра

Ваши права в разделе
Вы не можете создавать новые темы
Вы не можете отвечать в темах
Вы не можете прикреплять вложения
Вы не можете редактировать свои сообщения

BB коды Вкл.
Смайлы Вкл.
[IMG] код Вкл.
HTML код Выкл.

Быстрый переход


Часовой пояс GMT, время: 04:17.


Powered by vBulletin® Version 3.8.2
Copyright ©2000 - 2020, Jelsoft Enterprises Ltd. Перевод: zCarot
Rambler's Top100 Республика Татарстан - Каталог сайтов