Все Тут Online

   
Меню сайта:
Главная
Форум
Чат
- Online приложения:
- Игры
- Выбор стиля:
- FAQ
- Для начинающих

Вернуться   Все Тут Online > МАГНИТИЗДАТ (Оцифровки Кассет и Бобин) (lossless) > В гостях у Бориса 63 (Оцифровки с бобин и с кассет) > Шансон, Авторская песня и Фолк (Lossless)

загрузка...
Ответ
 
Опции темы Опции просмотра
Старый 10.01.2017, 15:56   #1
Борис 63
Супермодератор. Смотрящий за форумом. Модератор разделов оцифровок.
 
Аватар для Борис 63
 

Регистрация: 01.02.2010
Адрес: СССР Москва
Сообщений: 12,225
Сказал(а) спасибо: 6,241
Поблагодарили 38,051 раз(а) в 6,079 сообщениях
Борис 63 репутация неоспоримаБорис 63 репутация неоспоримаБорис 63 репутация неоспоримаБорис 63 репутация неоспоримаБорис 63 репутация неоспоримаБорис 63 репутация неоспоримаБорис 63 репутация неоспоримаБорис 63 репутация неоспоримаБорис 63 репутация неоспоримаБорис 63 репутация неоспоримаБорис 63 репутация неоспорима
По умолчанию (24/96) Братья Жемчужные -на Халяву -(lossless)

загрузка...





оцифровка с кассеты

01 Братья Жемчужные - Вступление
02 Братья Жемчужные - На халяву
03 Братья Жемчужные - Осенняя роса
04 Братья Жемчужные - Тапер
05 Братья Жемчужные - Маруся
06 Братья Жемчужные - Что нас ждёт
07 Братья Жемчужные - Жигули
08 Братья Жемчужные - Начальничек
09 Братья Жемчужные - Дума
10 Братья Жемчужные - Конфетки-прянички
11 Братья Жемчужные - Гиппопотам
12 Братья Жемчужные - Машка и мышка




ссылка FLAC+CUE:

Скрытый текст (вы должны зарегистрироваться или войти под своим логином):
У вас нет прав чтобы видеть скрытый текст, содержащейся здесь.
__________________
Ccылка на тему: Как скачивать с Яндекс диска!

Чтобы быстро скачать чужой опубликованный файл, сохраните его на свой Диск. На вашем Диске файл окажется мгновенно, а свои файлы вы всегда можете скачать без ограничений.

Последний раз редактировалось Борис 63; 15.01.2017 в 06:54.
Борис 63 вне форума   Ответить с цитированием
14 пользователя(ей) сказали cпасибо:
Д.Исакович (14.01.2017), Дмитрий (10.01.2017), artemzhyla (08.02.2017), Игорюха (10.01.2017), Корф (15.01.2017), fitil (10.01.2017), ibresih (26.01.2017), Отец Владимир (16.01.2017), kopilovoleg (10.01.2017), Korvet (10.01.2017), Саша (beloborod) (16.01.2017), victor1953 (12.01.2017), Yrok (16.01.2017), zitrus (10.01.2017)
Старый 15.01.2017, 06:55   #2
Борис 63
Супермодератор. Смотрящий за форумом. Модератор разделов оцифровок.
 
Аватар для Борис 63
 

Регистрация: 01.02.2010
Адрес: СССР Москва
Сообщений: 12,225
Сказал(а) спасибо: 6,241
Поблагодарили 38,051 раз(а) в 6,079 сообщениях
Борис 63 репутация неоспоримаБорис 63 репутация неоспоримаБорис 63 репутация неоспоримаБорис 63 репутация неоспоримаБорис 63 репутация неоспоримаБорис 63 репутация неоспоримаБорис 63 репутация неоспоримаБорис 63 репутация неоспоримаБорис 63 репутация неоспоримаБорис 63 репутация неоспоримаБорис 63 репутация неоспорима
По умолчанию

Добавил сканы обложки.

Раньше не мог , комп сильно глючил!
__________________
Ccылка на тему: Как скачивать с Яндекс диска!

Чтобы быстро скачать чужой опубликованный файл, сохраните его на свой Диск. На вашем Диске файл окажется мгновенно, а свои файлы вы всегда можете скачать без ограничений.
Борис 63 вне форума   Ответить с цитированием
2 пользователя(ей) сказали cпасибо:
Дмитрий (15.01.2017), Корф (15.01.2017)
Старый 16.01.2017, 07:32   #3
Отец Владимир
VIP
 

Регистрация: 21.01.2012
Сообщений: 996
Сказал(а) спасибо: 433
Поблагодарили 857 раз(а) в 357 сообщениях
Отец Владимир репутация неоспоримаОтец Владимир репутация неоспоримаОтец Владимир репутация неоспоримаОтец Владимир репутация неоспоримаОтец Владимир репутация неоспоримаОтец Владимир репутация неоспоримаОтец Владимир репутация неоспоримаОтец Владимир репутация неоспоримаОтец Владимир репутация неоспоримаОтец Владимир репутация неоспоримаОтец Владимир репутация неоспорима
По умолчанию

Ребята, будьте любезны, сделайте куй..
Отец Владимир вне форума   Ответить с цитированием
Старый 16.01.2017, 09:50   #4
Дмитрий
Music Group
 
Аватар для Дмитрий
 

Регистрация: 12.12.2008
Адрес: Москва прошлого тысячелетия.
Сообщений: 103,110
Сказал(а) спасибо: 23,289
Поблагодарили 102,984 раз(а) в 41,427 сообщениях
Дмитрий репутация неоспоримаДмитрий репутация неоспоримаДмитрий репутация неоспоримаДмитрий репутация неоспоримаДмитрий репутация неоспоримаДмитрий репутация неоспоримаДмитрий репутация неоспоримаДмитрий репутация неоспоримаДмитрий репутация неоспоримаДмитрий репутация неоспоримаДмитрий репутация неоспорима
Отправить сообщение для Дмитрий с помощью Skype™
По умолчанию

На Халяву - Братья Жемчужные.cue

Код:
REM GENRE "Шансон"
REM DATE 1998
REM COMMENT "Оцифровка - Борис 63"
TITLE "На халяву"
PERFORMER "Братья Жемчужные"
FILE "1 ст.flac" WAVE
  TRACK 01 AUDIO
TITLE "Вступление"
PERFORMER "Братья Жемчужные"
    INDEX 01 00:01:67
  TRACK 02 AUDIO
TITLE "На халяву"
PERFORMER "Братья Жемчужные"
    INDEX 01 00:17:31
  TRACK 03 AUDIO
TITLE "Осенняя роса"
PERFORMER "Братья Жемчужные"
    INDEX 01 03:33:34
  TRACK 04 AUDIO
TITLE "Тапер"
PERFORMER "Братья Жемчужные"
    INDEX 01 07:12:27
  TRACK 05 AUDIO
TITLE "Маруся"
PERFORMER "Братья Жемчужные"
    INDEX 01 12:03:30
  TRACK 06 AUDIO
TITLE "Что нас ждёт"
PERFORMER "Братья Жемчужные"
    INDEX 01 15:42:69
  TRACK 07 AUDIO
TITLE "Жигули"
PERFORMER "Братья Жемчужные"
    INDEX 01 19:59:46
FILE "2 ст.flac" WAVE
  TRACK 08 AUDIO
TITLE "Начальничек"
PERFORMER "Братья Жемчужные"
    INDEX 01 00:07:17
  TRACK 09 AUDIO
TITLE "Дума"
PERFORMER "Братья Жемчужные"
    INDEX 01 03:37:60
  TRACK 10 AUDIO
TITLE "Конфетки-прянички"
PERFORMER "Братья Жемчужные"
    INDEX 01 07:58:10
  TRACK 11 AUDIO
TITLE "Гиппопотам"
PERFORMER "Братья Жемчужные"
    INDEX 01 11:31:13
  TRACK 12 AUDIO
TITLE "Машка и мышка"
PERFORMER "Братья Жемчужные"
    INDEX 01 15:20:74
__________________










Ccылка на тему: Как скачивать с Яндекс диска!

Чтобы быстро скачать чужой опубликованный файл, сохраните его на свой Диск. На вашем Диске файл окажется мгновенно, а свои файлы вы всегда можете скачать без ограничений. Для этого нужно пройти регистрацию на https://mail.yandex.ru/

Уж лучше голодать, чем что попало есть... И лучше одному, чем вместе с кем попало.

Не работают ссылки, не надо флудить в теме. Сообщите ЗДЕСЬ!




Форум не против размещения раздач на других ресурсах. Скачал и не оставил комментарий - понизил релизёру мотивацию делиться с окружающими!

Команда Все Тут желает Вам приятного прослушивания!



Дмитрий вне форума   Ответить с цитированием
3 пользователя(ей) сказали cпасибо:
Отец Владимир (16.01.2017), Korvet (16.01.2017), Саша (beloborod) (16.01.2017)
Ответ

Закладки

Опции темы
Опции просмотра

Ваши права в разделе
Вы не можете создавать новые темы
Вы не можете отвечать в темах
Вы не можете прикреплять вложения
Вы не можете редактировать свои сообщения

BB коды Вкл.
Смайлы Вкл.
[IMG] код Вкл.
HTML код Выкл.

Быстрый переход


Часовой пояс GMT, время: 09:27.


Powered by vBulletin® Version 3.8.2
Copyright ©2000 - 2017, Jelsoft Enterprises Ltd. Перевод: zCarot
Rambler's Top100 Республика Татарстан - Каталог сайтов