Все Тут Online

   
Меню сайта:
Главная
Форум
Чат
- Online приложения:
- Игры
- Выбор стиля:
- FAQ
- Для начинающих

Вернуться   Все Тут Online > CD (Компакт диски) Lossless - МУЗЫКА БЕЗ ПОТЕРИ КАЧЕСТВА > РОК МУЗЫКА (Lossless) > Зарубежный Rock (lossless)

загрузка...
Ответ
 
Опции темы Опции просмотра
Старый 11.01.2017, 06:02   #1
shurele
VIP
 
Аватар для shurele
 

Регистрация: 09.04.2016
Адрес: Германия
Сообщений: 727
Сказал(а) спасибо: 92
Поблагодарили 1,948 раз(а) в 447 сообщениях
shurele репутация неоспоримаshurele репутация неоспоримаshurele репутация неоспоримаshurele репутация неоспоримаshurele репутация неоспоримаshurele репутация неоспоримаshurele репутация неоспоримаshurele репутация неоспоримаshurele репутация неоспоримаshurele репутация неоспоримаshurele репутация неоспорима
Отправить сообщение для shurele с помощью Skype™
По умолчанию The Monkees ‎– I'm A Believer

загрузка...
The Monkees

I'm A Believer



The Monkees — американский поп-рок-квартет, который записывался и выступал с концертами с 1966 по 1971 годы и не раз воссоединялся в конце 80-х, 90-х и 2000-х годах. Участники группы The Monkees были впервые собраны вместе в 1965 году телеканалом NBC для съёмок в одноимённом телесериале о буднях современной рок-группы, образцом для которого послужил фильм The Beatles «Вечер трудного дня». Созданная изначально с целью участия в телесериалах, группа обрела успех в другой нише, использовав ажиотаж вокруг «британского вторжения». Она стала «американским ответом» группе The Beatles. На своих первых двух альбомах «Манкис» исполняли песни из телесериалов, но на инструментах играли другие музыканты, но потом участники группы стали сами играть и выступать на сцене. Они записали ряд хитов «(Theme From) The Monkees», «Last Train to Clarksville», «I’m a Believer», «(I’m Not Your) Steppin' Stone», «Pleasant Valley Sunday» и «Daydream Believer». Их альбомы и синглы разошлись по всему миру тиражом более 65 миллионов экземпляров.

The Monkees - Википедия


Альбом: I'm A Believer
Исполнитель: The Monkees
Год выпуска:
Время звучания: 00:40:06
Жанр: pop, rock
Формат: FLAC (tracks)/ MP3 (320) (tracks)
Качество: Lossless
Количество треков: 14
Размер архива: flac - 294 Mb; mp3 (320kbps) - 103 Mb
Язык релиза: английский

Содержание:

1 (Theme From) The Monkees - (T.Boyce/B.Hart) - 2:17
2 Last Train To Clarksville - (T.Boyce/B.Hart) - 2:43
3 I'm A Believer - (Neil Diamond) - 2:43
4 (I'm Not Your) Steppin' Stone - (T.Boyce/B.Hart) - 2:19
5 A Little Bit Me, A Little Bit You - (Neil Diamond) - 2:46
6 The Girl I Knew Somewhere - (M.Nesmith) - 2:31
7 Pleasant Valley Sunday - (G.Coffin/C.King) - 3:07
8 Words - (T.Boyce/B.Hart) - 2:46
9 Daydream Believer - (J.Stewart) - 2:53
10 Goin' Down - (D.Hilderbrand/P.Tork/M.Nesmith/M.Dolenz/D.Jones) - 4:21
11 Valleri - (T.Boyce/B.Hart) - 2:18
12 The Porpoise Song (Theme From "Head) - (G.Coffin/C.King) - 4:07
13 That Was Then, This Is Now - (V.Brescia) - 4:00
14 Heart And Soul - (A.Howell/S.Byme) - 3:41





Код:
Exact Audio Copy V1.0 beta 3 from 29. August 2011

EAC extraction logfile from 9. January 2017, 7:48

Monkees / I'm A Believer

Used drive : TSSTcorpCDDVDW SH-216DB Adapter: 0 ID: 0

Read mode : Secure
Utilize accurate stream : Yes
Defeat audio cache : Yes
Make use of C2 pointers : No

Read offset correction : 6
Overread into Lead-In and Lead-Out : No
Fill up missing offset samples with silence : Yes
Delete leading and trailing silent blocks : No
Null samples used in CRC calculations : Yes
Used interface : Native Win32 interface for Win NT & 2000

Used output format : User Defined Encoder
Selected bitrate : 1024 kBit/s
Quality : High
Add ID3 tag : No
Command line compressor : C:\Program Files (x86)\Exact Audio Copy\Flac\flac.exe
Additional command line options : -V -8 -T "Date=%year%" -T "Genre=%genre%" %source%


TOC of the extracted CD

Track | Start | Length | Start sector | End sector
---------------------------------------------------------
1 | 0:00.00 | 2:23.12 | 0 | 10736
2 | 2:23.12 | 2:47.48 | 10737 | 23309
3 | 5:10.60 | 2:48.45 | 23310 | 35954
4 | 7:59.30 | 2:24.00 | 35955 | 46754
5 | 10:23.30 | 2:51.47 | 46755 | 59626
6 | 13:15.02 | 2:36.48 | 59627 | 71374
7 | 15:51.50 | 3:12.12 | 71375 | 85786
8 | 19:03.62 | 2:52.58 | 85787 | 98744
9 | 21:56.45 | 3:00.45 | 98745 | 112289
10 | 24:57.15 | 4:26.72 | 112290 | 132311
11 | 29:24.12 | 2:23.35 | 132312 | 143071
12 | 31:47.47 | 4:12.70 | 143072 | 162041
13 | 36:00.42 | 4:05.53 | 162042 | 180469
14 | 40:06.20 | 3:44.62 | 180470 | 197331


Range status and errors

Selected range

Filename L:\Private\My Audio Ripps\ CD - RIPS\The Monkees - I'm A Believer\Monkees - I'm A Believer.wav

Peak level 98.6 %
Extraction speed 2.7 X
Range quality 99.9 %
Test CRC 050A658D
Copy CRC 050A658D
Copy OK

No errors occurred


AccurateRip summary

Track 1 accurately ripped (confidence 6) [DE1B632F] (AR v2)
Track 2 accurately ripped (confidence 6) [1DA4F81D] (AR v2)
Track 3 accurately ripped (confidence 6) [68B75DC0] (AR v2)
Track 4 accurately ripped (confidence 6) [1A78B894] (AR v2)
Track 5 accurately ripped (confidence 6) [EFA98295] (AR v2)
Track 6 accurately ripped (confidence 6) [CFBB617D] (AR v2)
Track 7 accurately ripped (confidence 5) [8C151CF5] (AR v2)
Track 8 accurately ripped (confidence 5) [F019DD04] (AR v2)
Track 9 accurately ripped (confidence 6) [465514DE] (AR v2)
Track 10 accurately ripped (confidence 5) [1725F60E] (AR v2)
Track 11 accurately ripped (confidence 6) [36B7EFA6] (AR v2)
Track 12 accurately ripped (confidence 5) [75F71BB5] (AR v2)
Track 13 accurately ripped (confidence 5) [B54887AD] (AR v2)
Track 14 accurately ripped (confidence 5) [F53D9F46] (AR v2)

All tracks accurately ripped

End of status report

==== Log checksum 5CD99DB3B2CFA51232AF2C5E99DED81A4E86167DC4FD4DFB860310BF93AAB2FA ====

Barcode: 7619941224296

Рип - мой



Страна: Netherlands
Издатель (лейбл): Rondo Hitline ‎– RONDO 22429
Формат: FLAC / MP3 (320)
Параметры: CD, Compilation, Rip, image, log, cue
Источник: СД из собственной коллекции


Скрытый текст (вы должны зарегистрироваться или войти под своим логином):
У вас нет прав чтобы видеть скрытый текст, содержащейся здесь.
shurele вне форума   Ответить с цитированием
4 пользователя(ей) сказали cпасибо:
Д.Исакович (11.01.2017), GNUS59 (11.01.2017), kopilovoleg (11.01.2017), nfisher (11.01.2017)
Старый 11.01.2017, 17:51   #2
GNUS59
Новичок
 

Регистрация: 17.01.2014
Сообщений: 9
Сказал(а) спасибо: 78
Поблагодарили 4 раз(а) в 2 сообщениях
GNUS59 на пути к лучшему
По умолчанию

GNUS59 вне форума   Ответить с цитированием
Пользователь сказал cпасибо:
svetoch (12.01.2017)
Ответ

Закладки

Опции темы
Опции просмотра

Ваши права в разделе
Вы не можете создавать новые темы
Вы не можете отвечать в темах
Вы не можете прикреплять вложения
Вы не можете редактировать свои сообщения

BB коды Вкл.
Смайлы Вкл.
[IMG] код Вкл.
HTML код Выкл.

Быстрый переход


Часовой пояс GMT, время: 15:03.


Powered by vBulletin® Version 3.8.2
Copyright ©2000 - 2017, Jelsoft Enterprises Ltd. Перевод: zCarot
Rambler's Top100 Республика Татарстан - Каталог сайтов