Все Тут Online

   
Меню сайта:
Главная
Форум
Чат
- Online приложения:
- Игры
- Выбор стиля:
- FAQ
- Для начинающих

Вернуться   Все Тут Online > МАГНИТИЗДАТ (Оцифровки Кассет и Бобин) (lossless) > В гостях у Бориса 63 (Оцифровки с бобин и с кассет) > Шансон, Авторская песня и Фолк (Lossless)

загрузка...
Ответ
 
Опции темы Опции просмотра
Старый 11.01.2017, 15:28   #1
Борис 63
Супермодератор. Смотрящий за форумом. Модератор разделов оцифровок.
 
Аватар для Борис 63
 

Регистрация: 01.02.2010
Адрес: СССР Москва
Сообщений: 11,115
Сказал(а) спасибо: 5,517
Поблагодарили 33,331 раз(а) в 5,377 сообщениях
Борис 63 репутация неоспоримаБорис 63 репутация неоспоримаБорис 63 репутация неоспоримаБорис 63 репутация неоспоримаБорис 63 репутация неоспоримаБорис 63 репутация неоспоримаБорис 63 репутация неоспоримаБорис 63 репутация неоспоримаБорис 63 репутация неоспоримаБорис 63 репутация неоспоримаБорис 63 репутация неоспорима
По умолчанию (24/96) Миша Мармар -поговорим начистоту- (Lossless)

загрузка...






Треклист:

01 Мармар Михаил - Мадам, уже падают листья
02 Мармар Михаил - Поговорим начистоту
03 Мармар Михаил - Аквариум
04 Мармар Михаил - Туман
05 Мармар Михаил - Лоскутное одеяло
06 Мармар Михаил - Следы на воде
07 Мармар Михаил - Колдун
08 Мармар Михаил - Играй, трубач
09 Мармар Михаил - Дела, дела
10 Мармар Михаил - Девочка
11 Мармар Михаил - Прощаю всех
12 Мармар Михаил - Пролетали деньки


Оцифровка с кассеты Д.Исакович (Дмитрий)

Спасибо ему!!!

Кассета звучит в разы лучше, чем CD -но судить Вам!



ссылка FLAC+CUE:


Скрытый текст (вы должны зарегистрироваться или войти под своим логином):
У вас нет прав чтобы видеть скрытый текст, содержащейся здесь.
__________________
Ccылка на тему: Как скачивать с Яндекс диска!

Чтобы быстро скачать чужой опубликованный файл, сохраните его на свой Диск. На вашем Диске файл окажется мгновенно, а свои файлы вы всегда можете скачать без ограничений.
Борис 63 вне форума   Ответить с цитированием
12 пользователя(ей) сказали cпасибо:
Д.Исакович (11.01.2017), Дмитрий (11.01.2017), artemzhyla (27.01.2017), Джин73 (11.01.2017), дрон (12.01.2017), Корф (11.01.2017), kopilovoleg (11.01.2017), Korvet (11.01.2017), kurort (11.01.2017), qwer-70 (27.01.2017), victor1953 (12.01.2017), zitrus (11.01.2017)
Старый 27.01.2017, 15:45   #2
artemzhyla
Местный
 
Аватар для artemzhyla
 

Регистрация: 19.07.2011
Сообщений: 110
Сказал(а) спасибо: 385
Поблагодарили 43 раз(а) в 17 сообщениях
artemzhyla - весьма и весьма положительная личностьartemzhyla - весьма и весьма положительная личностьartemzhyla - весьма и весьма положительная личность
По умолчанию

.cue
Цитата:
REM DATE 1995
PERFORMER "Мармар Михаил"
TITLE "Поговорим начистоту"
FILE "Мармар.flac" WAVE
TRACK 01 AUDIO
TITLE "Мадам, уже падают листья"
PERFORMER "Мармар Михаил"
INDEX 01 00:00:00
TRACK 02 AUDIO
TITLE "Поговорим начистоту"
PERFORMER "Мармар Михаил"
INDEX 01 03:25:00
TRACK 03 AUDIO
TITLE "Аквариум"
PERFORMER "Мармар Михаил"
INDEX 01 07:54:00
TRACK 04 AUDIO
TITLE "Туман"
PERFORMER "Мармар Михаил"
INDEX 01 11:23:00
TRACK 05 AUDIO
TITLE "Лоскутное одеяло"
PERFORMER "Мармар Михаил"
INDEX 01 15:42:00
TRACK 06 AUDIO
TITLE "Следы на воде"
PERFORMER "Мармар Михаил"
INDEX 01 19:59:00
TRACK 07 AUDIO
TITLE "Колдун"
PERFORMER "Мармар Михаил"
INDEX 01 26:16:00
TRACK 08 AUDIO
TITLE "Играй, трубач"
PERFORMER "Мармар Михаил"
INDEX 01 29:42:00
TRACK 09 AUDIO
TITLE "Дела, дела"
PERFORMER "Мармар Михаил"
INDEX 01 34:54:00
TRACK 10 AUDIO
TITLE "Девочка"
PERFORMER "Мармар Михаил"
INDEX 01 38:32:00
TRACK 11 AUDIO
TITLE "Прощаю всех"
PERFORMER "Мармар Михаил"
INDEX 01 43:03:00
TRACK 12 AUDIO
TITLE "Пролетали деньки"
PERFORMER "Мармар Михаил"
INDEX 01 46:30:00

Последний раз редактировалось artemzhyla; 27.01.2017 в 16:16.
artemzhyla вне форума   Ответить с цитированием
2 пользователя(ей) сказали cпасибо:
Дмитрий (27.01.2017), Korvet (27.01.2017)
Ответ

Закладки

Опции темы
Опции просмотра

Ваши права в разделе
Вы не можете создавать новые темы
Вы не можете отвечать в темах
Вы не можете прикреплять вложения
Вы не можете редактировать свои сообщения

BB коды Вкл.
Смайлы Вкл.
[IMG] код Вкл.
HTML код Выкл.

Быстрый переход


Часовой пояс GMT, время: 00:52.


Powered by vBulletin® Version 3.8.2
Copyright ©2000 - 2017, Jelsoft Enterprises Ltd. Перевод: zCarot
Rambler's Top100 Республика Татарстан - Каталог сайтов