Все Тут Online
Все Тут Online
Новые сообщения
Все сообщения за последних 24 часа
Расширенный Поиск

   
Меню сайта:
Главная
Форум
Чат
- Online приложения:
- Игры
- Выбор стиля:
- FAQ
- Для начинающих

Вернуться   Все Тут Online > МАГНИТИЗДАТ (Оцифровки Кассет и Бобин) (lossless) > В гостях у Бориса 63 (Оцифровки с бобин и с кассет) > Поп Музыка (Lossless)

Старый 11.01.2019, 08:03   #1
Борис 63
Супермодератор. Смотрящий за форумом. Модератор разделов оцифровок.
 
Аватар для Борис 63
 

Регистрация: 01.02.2010
Адрес: СССР Москва
Сообщений: 13,928
Сказал(а) спасибо: 7,961
Поблагодарили 46,412 раз(а) в 7,433 сообщениях
Борис 63 репутация неоспоримаБорис 63 репутация неоспоримаБорис 63 репутация неоспоримаБорис 63 репутация неоспоримаБорис 63 репутация неоспоримаБорис 63 репутация неоспоримаБорис 63 репутация неоспоримаБорис 63 репутация неоспоримаБорис 63 репутация неоспоримаБорис 63 репутация неоспоримаБорис 63 репутация неоспорима
По умолчанию (24/96) гр. ГАДКИЕ ЛЕБЕДИ -Паутина- 1991 год (lossless)





Оцифровка с катушки купленной для форума Александром (Вит70)

Спасибо ему.


гр. ГАДКИЕ ЛЕБЕДИ - Паутина 1991

01 Паутина
02 Пыль в глаза
03 Песня о лётчике
04 Может так случится
05 На перекрёстке
06 Войди в рассвет
07 Град обречённый
08 Сотрясения мозга
Бригадиры
09 Я хочу быть всем


ссылка

Скрытый текст (вы должны зарегистрироваться или войти под своим логином):
У вас нет прав чтобы видеть скрытый текст, содержащейся здесь.
__________________
Ccылка на тему: Как скачивать с Яндекс диска!

Чтобы быстро скачать чужой опубликованный файл, сохраните его на свой Диск. На вашем Диске файл окажется мгновенно, а свои файлы вы всегда можете скачать без ограничений.

Последний раз редактировалось Борис 63; 11.01.2019 в 08:52.
Борис 63 вне форума   Ответить с цитированием
7 пользователя(ей) сказали cпасибо:
Вит70 (11.01.2019), belomor30 (11.01.2019), jurgen 72 (11.01.2019), Krock60 (13.01.2019), Саша (beloborod) (12.01.2019), SetrFred69 (12.01.2019), Yury_T (12.01.2019)
Старый 11.01.2019, 08:46   #2
Вит70
Команда
 

Регистрация: 09.06.2011
Сообщений: 1,440
Сказал(а) спасибо: 3,560
Поблагодарили 2,584 раз(а) в 928 сообщениях
Вит70 репутация неоспоримаВит70 репутация неоспоримаВит70 репутация неоспоримаВит70 репутация неоспоримаВит70 репутация неоспоримаВит70 репутация неоспоримаВит70 репутация неоспоримаВит70 репутация неоспоримаВит70 репутация неоспоримаВит70 репутация неоспоримаВит70 репутация неоспорима
По умолчанию

Борис 63, большое спасибо!!!!

гр. ГАДКИЕ ЛЕБЕДИ - Паутина 1991

01 Паутина
02 Пыль в глаза
03 Песня о лётчике
04 Может так случится
05 На перекрёстке
06 Войди в рассвет
07 Град обречённый
08 Сотрясения мозга
Бригадиры
09 Я хочу быть всем
Вит70 вне форума   Ответить с цитированием
2 пользователя(ей) сказали cпасибо:
Борис 63 (11.01.2019), Саша (beloborod) (12.01.2019)
Старый 11.01.2019, 12:31   #3
ната44
Пользователь
 

Регистрация: 19.05.2016
Сообщений: 76
Сказал(а) спасибо: 22
Поблагодарили 79 раз(а) в 53 сообщениях
ната44 - очень-очень хороший человекната44 - очень-очень хороший человекната44 - очень-очень хороший человекната44 - очень-очень хороший человекната44 - очень-очень хороший человек
По умолчанию

Спасибо Борису и Вит70 за новое-старое имя.
ната44 вне форума   Ответить с цитированием
2 пользователя(ей) сказали cпасибо:
Вит70 (11.01.2019), Борис 63 (11.01.2019)
Старый 11.01.2019, 15:31   #4
belomor30
VIP
 
Аватар для belomor30
 

Регистрация: 28.10.2015
Адрес: Город Пермь
Сообщений: 550
Сказал(а) спасибо: 682
Поблагодарили 848 раз(а) в 359 сообщениях
belomor30 репутация неоспоримаbelomor30 репутация неоспоримаbelomor30 репутация неоспоримаbelomor30 репутация неоспоримаbelomor30 репутация неоспоримаbelomor30 репутация неоспоримаbelomor30 репутация неоспоримаbelomor30 репутация неоспоримаbelomor30 репутация неоспоримаbelomor30 репутация неоспоримаbelomor30 репутация неоспорима
По умолчанию

Спасибо, редко встречаются оригинальные исполнители. Особенно среди развалов культуры ушедшей эпохи.
Многие имена канули в лету, не оставив следа... Но как известно рукописи не горят и иногда среди кучи шлака выплывает что-нибудь, что цепляет с первого раза. Вот и этот коллектив - никогда не слышал такого названия и творчество его неизвестно мне. Но сразу понравилось.
Хотя, я бы не стал размещать этот релиз в разделе поп-музыки. Моё мнение, что это одно из ответвлений от широкого течения рок-музыки, с элементами пост-панка и новой волны (хотя и синтезированных звуков у них хватает).

Ах да, чуть не забыл куй выложить :

Гадкие Лебеди (p)1991 Паутина.cue
belomor30 на форуме   Ответить с цитированием
3 пользователя(ей) сказали cпасибо:
Вит70 (11.01.2019), Борис 63 (11.01.2019), Саша (beloborod) (12.01.2019)
Старый 11.01.2019, 15:32   #5
belomor30
VIP
 
Аватар для belomor30
 

Регистрация: 28.10.2015
Адрес: Город Пермь
Сообщений: 550
Сказал(а) спасибо: 682
Поблагодарили 848 раз(а) в 359 сообщениях
belomor30 репутация неоспоримаbelomor30 репутация неоспоримаbelomor30 репутация неоспоримаbelomor30 репутация неоспоримаbelomor30 репутация неоспоримаbelomor30 репутация неоспоримаbelomor30 репутация неоспоримаbelomor30 репутация неоспоримаbelomor30 репутация неоспоримаbelomor30 репутация неоспоримаbelomor30 репутация неоспорима
По умолчанию

Код:
REM GENRE Rock / Post-Punk / New Wave
REM DATE 1991
REM COMMENT "Reel-to-Reel Deck 'Technics RS-1506' => 'Zoom h4n'"
REM COMMENT "Specially for http://vsetutonline.com"
REM COMMENT "Запись из коллекции - Александр (Вит70)"   
REM COMMENT "Оцифровка - Борис 63"
TITLE "Паутина"
PERFORMER "Гадкие Лебеди"
FILE "Лебеди91.flac" WAVE
  TRACK 01 AUDIO
TITLE "Паутина"
PERFORMER "Гадкие Лебеди"
    INDEX 01 00:00:00
  TRACK 02 AUDIO
TITLE "Пыль в глаза"
PERFORMER "Гадкие Лебеди"
    INDEX 01 05:40:00
  TRACK 03 AUDIO
TITLE "Песня о лётчике"
PERFORMER "Гадкие Лебеди"
    INDEX 01 10:07:00
  TRACK 04 AUDIO
TITLE "Может так случится"
PERFORMER "Гадкие Лебеди"
    INDEX 01 15:25:00
  TRACK 05 AUDIO
TITLE "На перекрёстке"
PERFORMER "Гадкие Лебеди"
    INDEX 01 20:46:00
  TRACK 06 AUDIO
TITLE "Войди в рассвет"
PERFORMER "Гадкие Лебеди"
    INDEX 01 25:20:01
  TRACK 07 AUDIO
TITLE "Град обречённый"
PERFORMER "Гадкие Лебеди"
    INDEX 01 30:59:00
  TRACK 08 AUDIO
TITLE "Сотрясения мозга"
PERFORMER "Гадкие Лебеди"
    INDEX 01 37:12:00
  TRACK 09 AUDIO
TITLE "Я хочу быть всем"
PERFORMER "Бригадиры"
    INDEX 01 41:12:00
belomor30 на форуме   Ответить с цитированием
3 пользователя(ей) сказали cпасибо:
Вит70 (11.01.2019), Борис 63 (11.01.2019), Саша (beloborod) (12.01.2019)
Ответ

Закладки

Опции темы
Опции просмотра
Комбинированный вид Комбинированный вид

Ваши права в разделе
Вы не можете создавать новые темы
Вы не можете отвечать в темах
Вы не можете прикреплять вложения
Вы не можете редактировать свои сообщения

BB коды Вкл.
Смайлы Вкл.
[IMG] код Вкл.
HTML код Выкл.

Быстрый переход


Часовой пояс GMT, время: 16:18.


Powered by vBulletin® Version 3.8.2
Copyright ©2000 - 2019, Jelsoft Enterprises Ltd. Перевод: zCarot
Rambler's Top100 Республика Татарстан - Каталог сайтов