Все Тут Online
Все Тут Online
Новые сообщения
Все сообщения за последних 24 часа
Расширенный Поиск

   
Меню сайта:
Главная
Форум
Чат
- Online приложения:
- Игры
- Выбор стиля:
- FAQ
- Для начинающих

Вернуться   Все Тут Online > ОЦИФРОВКИ ВИНИЛА (Lossless) > Оцифровки ВИНИЛА пользователей нашего форума > Оцифровки Борис 63 (Technics SL-1200 MK3D // Victor QL-A7 [Audio-Technica AT440MLa] => Accuphase 200

Ответ
 
Опции темы Опции просмотра
Старый 19.10.2019, 08:30   #11
mlkn658776jvg
VIP
 
Аватар для mlkn658776jvg
 

Регистрация: 19.07.2015
Адрес: Краснодарский край
Сообщений: 1,292
Сказал(а) спасибо: 5,267
Поблагодарили 1,338 раз(а) в 757 сообщениях
mlkn658776jvg репутация неоспоримаmlkn658776jvg репутация неоспоримаmlkn658776jvg репутация неоспоримаmlkn658776jvg репутация неоспоримаmlkn658776jvg репутация неоспоримаmlkn658776jvg репутация неоспоримаmlkn658776jvg репутация неоспоримаmlkn658776jvg репутация неоспоримаmlkn658776jvg репутация неоспоримаmlkn658776jvg репутация неоспоримаmlkn658776jvg репутация неоспорима
По умолчанию

REM DATE 1973
REM GENRE Rock
PERFORMER "Little Feat"
TITLE "Dixie Chicken"
REM COMMENT Оцифровка Борис 63
FILE "3,4.flac" WAVE
TRACK 01 AUDIO
TITLE "Dixie Chicken"
INDEX 01 00:00:00
TRACK 02 AUDIO
TITLE "Two Trains"
INDEX 01 04:00:00
TRACK 03 AUDIO
TITLE "Roll Um Easy"
INDEX 01 07:06:00
TRACK 04 AUDIO
TITLE "On Your Way Down"
INDEX 01 09:39:00
TRACK 05 AUDIO
TITLE "Kiss It Off"
INDEX 01 15:10:00
TRACK 06 AUDIO
TITLE "Fool Yourself"
INDEX 01 18:15:00
TRACK 07 AUDIO
TITLE "Walkin All Night"
INDEX 01 21:33:00
TRACK 08 AUDIO
TITLE "Fat Man In The Bathtub"
INDEX 01 25:09:00
TRACK 09 AUDIO
TITLE "Juliette"
INDEX 01 29:40:00
TRACK 10 AUDIO
TITLE "Lafayette Railroad"
INDEX 01 33:10:00
__________________
Long Live Rock'n'Roll & ВТО!
mlkn658776jvg вне форума   Ответить с цитированием
Старый 20.10.2019, 07:24   #12
mlkn658776jvg
VIP
 
Аватар для mlkn658776jvg
 

Регистрация: 19.07.2015
Адрес: Краснодарский край
Сообщений: 1,292
Сказал(а) спасибо: 5,267
Поблагодарили 1,338 раз(а) в 757 сообщениях
mlkn658776jvg репутация неоспоримаmlkn658776jvg репутация неоспоримаmlkn658776jvg репутация неоспоримаmlkn658776jvg репутация неоспоримаmlkn658776jvg репутация неоспоримаmlkn658776jvg репутация неоспоримаmlkn658776jvg репутация неоспоримаmlkn658776jvg репутация неоспоримаmlkn658776jvg репутация неоспоримаmlkn658776jvg репутация неоспоримаmlkn658776jvg репутация неоспорима
По умолчанию

Сделал куи, если кому надо. Поднимаю тему так как подозреваю что из-за вчерашнего спама могли пропустить.
__________________
Long Live Rock'n'Roll & ВТО!
mlkn658776jvg вне форума   Ответить с цитированием
Пользователь сказал cпасибо:
Дмитрий (20.10.2019)
Ответ

Закладки

Опции темы
Опции просмотра

Ваши права в разделе
Вы не можете создавать новые темы
Вы не можете отвечать в темах
Вы не можете прикреплять вложения
Вы не можете редактировать свои сообщения

BB коды Вкл.
Смайлы Вкл.
[IMG] код Вкл.
HTML код Выкл.

Быстрый переход


Часовой пояс GMT, время: 14:15.


Powered by vBulletin® Version 3.8.2
Copyright ©2000 - 2019, Jelsoft Enterprises Ltd. Перевод: zCarot
Rambler's Top100 Республика Татарстан - Каталог сайтов