Все Тут Online
Все Тут Online
Новые сообщения
Все сообщения за последних 24 часа
Расширенный Поиск

   
Меню сайта:
Главная
Форум
Чат
- Online приложения:
- Игры
- Выбор стиля:
- FAQ
- Для начинающих

Вернуться   Все Тут Online > ОЦИФРОВКИ ВИНИЛА (Lossless) > Оцифровки ВИНИЛА пользователей нашего форума > Оцифровки Борис 63 (Technics SL-1200 MK3D // Victor QL-A7 [Audio-Technica AT440MLa] => Accuphase 200

Ответ
 
Опции темы Опции просмотра
Старый 07.10.2018, 15:17   #11
ДенисПоПов27
VIP
 

Регистрация: 29.03.2011
Сообщений: 3,248
Сказал(а) спасибо: 5,331
Поблагодарили 1,750 раз(а) в 1,070 сообщениях
ДенисПоПов27 репутация неоспоримаДенисПоПов27 репутация неоспоримаДенисПоПов27 репутация неоспоримаДенисПоПов27 репутация неоспоримаДенисПоПов27 репутация неоспоримаДенисПоПов27 репутация неоспоримаДенисПоПов27 репутация неоспоримаДенисПоПов27 репутация неоспоримаДенисПоПов27 репутация неоспоримаДенисПоПов27 репутация неоспоримаДенисПоПов27 репутация неоспорима
По умолчанию

Борис 63, Беру и эти две)))
ДенисПоПов27 вне форума   Ответить с цитированием
Старый 07.10.2018, 19:36   #12
bobrovich
Модератор
 

Регистрация: 27.09.2015
Сообщений: 2,470
Сказал(а) спасибо: 1,677
Поблагодарили 3,084 раз(а) в 1,517 сообщениях
bobrovich репутация неоспоримаbobrovich репутация неоспоримаbobrovich репутация неоспоримаbobrovich репутация неоспоримаbobrovich репутация неоспоримаbobrovich репутация неоспоримаbobrovich репутация неоспоримаbobrovich репутация неоспоримаbobrovich репутация неоспоримаbobrovich репутация неоспоримаbobrovich репутация неоспорима
По умолчанию

Да Борис, записано классно, песка почти нет, может быть помытая , она бы еще бы чище звучала. Жду с нетерпением теста головок. Не мог бы ты еще сфотать коробочку и вставку от EMPIRE?
bobrovich на форуме   Ответить с цитированием
Старый 07.10.2018, 20:08   #13
Борис 63
Супермодератор. Смотрящий за форумом. Модератор разделов оцифровок.
 
Аватар для Борис 63
 

Регистрация: 01.02.2010
Адрес: СССР Москва
Сообщений: 13,653
Сказал(а) спасибо: 7,645
Поблагодарили 44,939 раз(а) в 7,223 сообщениях
Борис 63 репутация неоспоримаБорис 63 репутация неоспоримаБорис 63 репутация неоспоримаБорис 63 репутация неоспоримаБорис 63 репутация неоспоримаБорис 63 репутация неоспоримаБорис 63 репутация неоспоримаБорис 63 репутация неоспоримаБорис 63 репутация неоспоримаБорис 63 репутация неоспоримаБорис 63 репутация неоспорима
По умолчанию

bobrovich,

Слав ,конечно сфотографирую.

Супруга с утра обещала получить - как принесет ,будем фотографировать и отслушивать.

А именно мойки для пластинок у меня нет - есть зажимы самодельные ,но эти пластинки мыть не хочется - они в конвертах и их оттуда не доставали.

Ты же видел тему о продаже - у продавца было не по одной штуки.

Эти с конверта достаю и ни одной пылинки.
__________________
Ccылка на тему: Как скачивать с Яндекс диска!

Чтобы быстро скачать чужой опубликованный файл, сохраните его на свой Диск. На вашем Диске файл окажется мгновенно, а свои файлы вы всегда можете скачать без ограничений.
Борис 63 вне форума   Ответить с цитированием
Старый 07.10.2018, 20:18   #14
bobrovich
Модератор
 

Регистрация: 27.09.2015
Сообщений: 2,470
Сказал(а) спасибо: 1,677
Поблагодарили 3,084 раз(а) в 1,517 сообщениях
bobrovich репутация неоспоримаbobrovich репутация неоспоримаbobrovich репутация неоспоримаbobrovich репутация неоспоримаbobrovich репутация неоспоримаbobrovich репутация неоспоримаbobrovich репутация неоспоримаbobrovich репутация неоспоримаbobrovich репутация неоспоримаbobrovich репутация неоспоримаbobrovich репутация неоспорима
По умолчанию

От этих советских конвертов в канавки немерено набивается целлюлозы , а по поводу мойки есть простой как 3 копейки способ от VALERONа
bobrovich на форуме   Ответить с цитированием
Пользователь сказал cпасибо:
cthutq_1956 (08.10.2018)
Старый 08.10.2018, 04:59   #15
Борис 63
Супермодератор. Смотрящий за форумом. Модератор разделов оцифровок.
 
Аватар для Борис 63
 

Регистрация: 01.02.2010
Адрес: СССР Москва
Сообщений: 13,653
Сказал(а) спасибо: 7,645
Поблагодарили 44,939 раз(а) в 7,223 сообщениях
Борис 63 репутация неоспоримаБорис 63 репутация неоспоримаБорис 63 репутация неоспоримаБорис 63 репутация неоспоримаБорис 63 репутация неоспоримаБорис 63 репутация неоспоримаБорис 63 репутация неоспоримаБорис 63 репутация неоспоримаБорис 63 репутация неоспоримаБорис 63 репутация неоспоримаБорис 63 репутация неоспорима
По умолчанию

bobrovich,

Спасибо ,Слав - я примерно так и мою пластинки.

Только яблоко у меня под зажимом. - не мокнет.
__________________
Ccылка на тему: Как скачивать с Яндекс диска!

Чтобы быстро скачать чужой опубликованный файл, сохраните его на свой Диск. На вашем Диске файл окажется мгновенно, а свои файлы вы всегда можете скачать без ограничений.
Борис 63 вне форума   Ответить с цитированием
Старый 08.10.2018, 05:25   #16
mlkn658776jvg
VIP
 
Аватар для mlkn658776jvg
 

Регистрация: 19.07.2015
Адрес: Краснодарский край
Сообщений: 846
Сказал(а) спасибо: 3,579
Поблагодарили 890 раз(а) в 512 сообщениях
mlkn658776jvg репутация неоспоримаmlkn658776jvg репутация неоспоримаmlkn658776jvg репутация неоспоримаmlkn658776jvg репутация неоспоримаmlkn658776jvg репутация неоспоримаmlkn658776jvg репутация неоспоримаmlkn658776jvg репутация неоспоримаmlkn658776jvg репутация неоспоримаmlkn658776jvg репутация неоспоримаmlkn658776jvg репутация неоспоримаmlkn658776jvg репутация неоспорима
По умолчанию

REM DATE 1989
REM GENRE Pop
PERFORMER "анс. ''Пламя''"
TITLE "У Серебряного Бора"
REM COMMENT Оцифровка Борис 63
FILE "ансамбль ПЛПМЯ -У серебряного бора- 1989.flac" WAVE
TRACK 01 AUDIO
TITLE "У Серебряного Бора"
INDEX 01 00:03:00
TRACK 02 AUDIO
TITLE "Фея"
INDEX 01 03:46:00
TRACK 03 AUDIO
TITLE "Чудо"
INDEX 01 08:20:00
TRACK 04 AUDIO
TITLE "Песенка шарманщика"
INDEX 01 12:57:00
TRACK 05 AUDIO
TITLE "Пастух"
INDEX 01 17:24:00
TRACK 06 AUDIO
TITLE "Поезд в листопад"
INDEX 01 20:30:00
TRACK 07 AUDIO
TITLE "Видеоклуб"
INDEX 01 25:36:00
TRACK 08 AUDIO
TITLE "Переведи часы назад"
INDEX 01 29:24:00
TRACK 09 AUDIO
TITLE "Речной трамвайчик"
INDEX 01 33:58:00
TRACK 10 AUDIO
TITLE "Цирк шапито"
INDEX 01 37:10:00

Последний раз редактировалось mlkn658776jvg; 08.10.2018 в 06:04.
mlkn658776jvg вне форума   Ответить с цитированием
3 пользователя(ей) сказали cпасибо:
Дмитрий (08.10.2018), Борис 63 (08.10.2018), cthutq_1956 (10.10.2018)
Старый 10.10.2018, 18:55   #17
belomor30
VIP
 
Аватар для belomor30
 

Регистрация: 28.10.2015
Адрес: Город Пермь
Сообщений: 291
Сказал(а) спасибо: 596
Поблагодарили 451 раз(а) в 182 сообщениях
belomor30 репутация неоспоримаbelomor30 репутация неоспоримаbelomor30 репутация неоспоримаbelomor30 репутация неоспоримаbelomor30 репутация неоспоримаbelomor30 репутация неоспоримаbelomor30 репутация неоспоримаbelomor30 репутация неоспоримаbelomor30 репутация неоспоримаbelomor30 репутация неоспоримаbelomor30 репутация неоспорима
По умолчанию

Всем кто не умеет, не желает, или просто из личностных побуждении не считает нужным копировать и вставлять во всякие там текстовые файла, а потом переименовывать расширение - для Вас: Альтернативный куй из категории "на всякий случай" в виде ссылки (расширенный вариант с тех.данными оцифровки).

Пламя (р)1989 У Серебряного бора
belomor30 на форуме   Ответить с цитированием
2 пользователя(ей) сказали cпасибо:
Дмитрий (10.10.2018), Борис 63 (10.10.2018)
Ответ

Закладки

Опции темы
Опции просмотра

Ваши права в разделе
Вы не можете создавать новые темы
Вы не можете отвечать в темах
Вы не можете прикреплять вложения
Вы не можете редактировать свои сообщения

BB коды Вкл.
Смайлы Вкл.
[IMG] код Вкл.
HTML код Выкл.

Быстрый переход


Часовой пояс GMT, время: 12:41.


Powered by vBulletin® Version 3.8.2
Copyright ©2000 - 2018, Jelsoft Enterprises Ltd. Перевод: zCarot
Rambler's Top100 Республика Татарстан - Каталог сайтов