Все Тут Online
Все Тут Online
Новые сообщения
Все сообщения за последних 24 часа
Расширенный Поиск

   
Меню сайта:
Главная
Форум
Чат
- Online приложения:
- Игры
- Выбор стиля:
- FAQ
- Для начинающих

Вернуться   Все Тут Online > ОЦИФРОВКИ ВИНИЛА (Lossless) > Оцифровки ВИНИЛА пользователей нашего форума > Оцифровки Борис 63 (Technics SL-1200 MK3D // Victor QL-A7 [Audio-Technica AT440MLa] => Accuphase 200

Старый 16.10.2018, 10:23   #1
Борис 63
Супермодератор. Смотрящий за форумом. Модератор разделов оцифровок.
 
Аватар для Борис 63
 

Регистрация: 01.02.2010
Адрес: СССР Москва
Сообщений: 13,646
Сказал(а) спасибо: 7,639
Поблагодарили 44,894 раз(а) в 7,217 сообщениях
Борис 63 репутация неоспоримаБорис 63 репутация неоспоримаБорис 63 репутация неоспоримаБорис 63 репутация неоспоримаБорис 63 репутация неоспоримаБорис 63 репутация неоспоримаБорис 63 репутация неоспоримаБорис 63 репутация неоспоримаБорис 63 репутация неоспоримаБорис 63 репутация неоспоримаБорис 63 репутация неоспорима
По умолчанию (24/96) MADNESS (р)1979 One Step Beyond... (Stiff Records, 940 822, France) (lossless)














Оцифровка с пластинки Игоря (Капитан_Воронин)
Спасибо ему.


ссылка

Скрытый текст (вы должны зарегистрироваться или войти под своим логином):
У вас нет прав чтобы видеть скрытый текст, содержащейся здесь.
__________________
Ccылка на тему: Как скачивать с Яндекс диска!

Чтобы быстро скачать чужой опубликованный файл, сохраните его на свой Диск. На вашем Диске файл окажется мгновенно, а свои файлы вы всегда можете скачать без ограничений.
Борис 63 вне форума   Ответить с цитированием
9 пользователя(ей) сказали cпасибо:
Владимир 1733 (20.10.2018), Владислав49 (17.10.2018), Дмитрий (16.10.2018), belomor30 (19.10.2018), cthutq_1956 (16.10.2018), FLHTYFKBY (16.10.2018), Саша (beloborod) (16.10.2018), oblom123 (16.10.2018), Shtycer (16.10.2018)
Старый 16.10.2018, 12:14   #2
Капитан_Воронин
Команда
 

Регистрация: 03.07.2011
Сообщений: 385
Сказал(а) спасибо: 9
Поблагодарили 839 раз(а) в 236 сообщениях
Капитан_Воронин репутация неоспоримаКапитан_Воронин репутация неоспоримаКапитан_Воронин репутация неоспоримаКапитан_Воронин репутация неоспоримаКапитан_Воронин репутация неоспоримаКапитан_Воронин репутация неоспоримаКапитан_Воронин репутация неоспоримаКапитан_Воронин репутация неоспоримаКапитан_Воронин репутация неоспоримаКапитан_Воронин репутация неоспоримаКапитан_Воронин репутация неоспорима
По умолчанию

Спасибо, Борис! Офигеть, как здорово получилось!
Капитан_Воронин вне форума   Ответить с цитированием
Пользователь сказал cпасибо:
Борис 63 (16.10.2018)
Старый 16.10.2018, 14:30   #3
Shtycer
Новичок
 

Регистрация: 12.06.2016
Сообщений: 11
Сказал(а) спасибо: 58
Поблагодарили 21 раз(а) в 9 сообщениях
Shtycer скоро придёт к известностиShtycer скоро придёт к известности
По умолчанию

REM GENRE Ska / SkaRevival
REM DATE 1979
REM COMMENT Оцифровка Борис 63
PERFORMER "Madness"
TITLE "One Step Beyond"
FILE "MADNESS -One step beyond- 1979.flac" WAVE
TRACK 01 AUDIO
TITLE "One Step Beyond"
PERFORMER "Madness"
INDEX 01 00:01:00
TRACK 02 AUDIO
TITLE "My Girl"
PERFORMER "Madness"
INDEX 01 02:19:00
TRACK 03 AUDIO
TITLE "Night Boat To Cairo"
PERFORMER "Madness"
INDEX 01 05:03:50
TRACK 04 AUDIO
TITLE "Believe Me"
PERFORMER "Madness"
INDEX 01 08:35:00
TRACK 05 AUDIO
TITLE "Land Of Hope And Glory"
PERFORMER "Madness"
INDEX 01 11:04:00
TRACK 06 AUDIO
TITLE "The Prince"
PERFORMER "Madness"
INDEX 01 14:02:00
TRACK 07 AUDIO
TITLE "Tarzan's Nuts"
PERFORMER "Madness"
INDEX 01 17:21:50
TRACK 08 AUDIO
TITLE "In The Middle Of The Night"
PERFORMER "Madness"
INDEX 01 19:49:50
TRACK 09 AUDIO
TITLE "Bed And Breakfast Man"
PERFORMER "Madness"
INDEX 01 22:51:00
TRACK 10 AUDIO
TITLE "Razor And Blade Alley"
PERFORMER "Madness"
INDEX 01 25:24:60
TRACK 11 AUDIO
TITLE "Swan Lake"
PERFORMER "Madness"
INDEX 01 28:07:00
TRACK 12 AUDIO
TITLE "Rockin' In Ab"
PERFORMER "Madness"
INDEX 01 30:43:40
TRACK 13 AUDIO
TITLE "Mummy's Boy"
PERFORMER "Madness"
INDEX 01 33:13:40
TRACK 14 AUDIO
TITLE "Madness"
PERFORMER "Madness"
INDEX 01 35:37:40
TRACK 15 AUDIO
TITLE "Chipmunks Are Go"
PERFORMER "Madness"
INDEX 01 38:16:20
Shtycer вне форума   Ответить с цитированием
Пользователь сказал cпасибо:
Борис 63 (16.10.2018)
Старый 16.10.2018, 16:20   #4
cthutq_1956
VIP
 
Аватар для cthutq_1956
 

Регистрация: 17.11.2016
Адрес: Челябинск
Сообщений: 3,508
Сказал(а) спасибо: 6,085
Поблагодарили 1,878 раз(а) в 1,404 сообщениях
cthutq_1956 репутация неоспоримаcthutq_1956 репутация неоспоримаcthutq_1956 репутация неоспоримаcthutq_1956 репутация неоспоримаcthutq_1956 репутация неоспоримаcthutq_1956 репутация неоспоримаcthutq_1956 репутация неоспоримаcthutq_1956 репутация неоспоримаcthutq_1956 репутация неоспоримаcthutq_1956 репутация неоспоримаcthutq_1956 репутация неоспорима
По умолчанию

Борис 63,
Капитан_Воронин,
Нормально для ознакомления , фанаты лучше найдут если нужно очень ,спасибо большое.
cthutq_1956 вне форума   Ответить с цитированием
Старый 19.10.2018, 17:08   #5
belomor30
VIP
 
Аватар для belomor30
 

Регистрация: 28.10.2015
Адрес: Город Пермь
Сообщений: 291
Сказал(а) спасибо: 595
Поблагодарили 450 раз(а) в 182 сообщениях
belomor30 репутация неоспоримаbelomor30 репутация неоспоримаbelomor30 репутация неоспоримаbelomor30 репутация неоспоримаbelomor30 репутация неоспоримаbelomor30 репутация неоспоримаbelomor30 репутация неоспоримаbelomor30 репутация неоспоримаbelomor30 репутация неоспоримаbelomor30 репутация неоспоримаbelomor30 репутация неоспорима
По умолчанию

СУПЕРАЛЬБОМ.

MADNESS (р)1979 One Step Beyond...
(Stiff Records, 940 822, France)

A1 - One Step Beyond... - 2:17
A2 - My Girl - 2:44
A3 - Night Boat To Cairo - 3:31
A4 - Believe Me - 2:28
A5 - Land Of Hope & Glory - 2:56
A6 - The Prince - 3:18
A7 - Tarzan's Nuts - 2:24

B1 - In The Middle Of The Night - 3:01
B2 - Bed & Breakfast - 2:32
B3 - Razor Blade Alley - 2:41
B4 - Swan Lake - 2:35
B5 - Rockin' In Ab - 2:28
B6 - Mummy's Boy - 2:24
B7 - Madness - 2:37
B8 - Chipmunks Are Go! - 0:52


CUE-SHEET в виде ссылки с добавленной информацией об издании и технике:
Madness (р)1979 One Step Beyond
belomor30 вне форума   Ответить с цитированием
3 пользователя(ей) сказали cпасибо:
Дмитрий (19.10.2018), Борис 63 (19.10.2018), Shtycer (22.10.2018)
Ответ

Закладки

Опции темы
Опции просмотра

Ваши права в разделе
Вы не можете создавать новые темы
Вы не можете отвечать в темах
Вы не можете прикреплять вложения
Вы не можете редактировать свои сообщения

BB коды Вкл.
Смайлы Вкл.
[IMG] код Вкл.
HTML код Выкл.

Быстрый переход


Часовой пояс GMT, время: 12:04.


Powered by vBulletin® Version 3.8.2
Copyright ©2000 - 2018, Jelsoft Enterprises Ltd. Перевод: zCarot
Rambler's Top100 Республика Татарстан - Каталог сайтов