Все Тут Online
Все Тут Online
Новые сообщения
Все сообщения за последних 24 часа
Расширенный Поиск

   
Меню сайта:
Главная
Форум
Чат
- Online приложения:
- Игры
- Выбор стиля:
- FAQ
- Для начинающих

Вернуться   Все Тут Online > ОЦИФРОВКИ ВИНИЛА (Lossless) > Оцифровки ВИНИЛА пользователей нашего форума > Оцифровки Борис 63 (Technics SL-1200 MK3D // Victor QL-A7 [Audio-Technica AT440MLa] => Accuphase 200

Старый 02.09.2018, 07:26   #1
Борис 63
Супермодератор. Смотрящий за форумом. Модератор разделов оцифровок.
 
Аватар для Борис 63
 

Регистрация: 01.02.2010
Адрес: СССР Москва
Сообщений: 13,692
Сказал(а) спасибо: 7,688
Поблагодарили 45,057 раз(а) в 7,243 сообщениях
Борис 63 репутация неоспоримаБорис 63 репутация неоспоримаБорис 63 репутация неоспоримаБорис 63 репутация неоспоримаБорис 63 репутация неоспоримаБорис 63 репутация неоспоримаБорис 63 репутация неоспоримаБорис 63 репутация неоспоримаБорис 63 репутация неоспоримаБорис 63 репутация неоспоримаБорис 63 репутация неоспорима
По умолчанию (24/96) AMII STEWART - Images - 1981 [Hansa International ‎ - 203 689, Germany] (lossless)












Оцифровка с пластинки Игоря (Капитан_Воронин)
Спасибо ему.


ссылка

Скрытый текст (вы должны зарегистрироваться или войти под своим логином):
У вас нет прав чтобы видеть скрытый текст, содержащейся здесь.
__________________
Ccылка на тему: Как скачивать с Яндекс диска!

Чтобы быстро скачать чужой опубликованный файл, сохраните его на свой Диск. На вашем Диске файл окажется мгновенно, а свои файлы вы всегда можете скачать без ограничений.
Борис 63 вне форума   Ответить с цитированием
13 пользователя(ей) сказали cпасибо:
Денис1977 (04.09.2018), ГеннадийС161 (02.09.2018), belomor30 (03.09.2018), cthutq_1956 (02.09.2018), DeD (02.09.2018), марьяша (02.09.2018), Igor64 (24.09.2018), Mebius (20.10.2018), mlkn658776jvg (02.09.2018), ТОМ (03.10.2018), olegleonan (30.09.2018), poiuytrewq3377 (02.09.2018), SetrFred69 (03.09.2018)
Старый 02.09.2018, 08:20   #2
mlkn658776jvg
VIP
 
Аватар для mlkn658776jvg
 

Регистрация: 19.07.2015
Адрес: Краснодарский край
Сообщений: 846
Сказал(а) спасибо: 3,579
Поблагодарили 890 раз(а) в 512 сообщениях
mlkn658776jvg репутация неоспоримаmlkn658776jvg репутация неоспоримаmlkn658776jvg репутация неоспоримаmlkn658776jvg репутация неоспоримаmlkn658776jvg репутация неоспоримаmlkn658776jvg репутация неоспоримаmlkn658776jvg репутация неоспоримаmlkn658776jvg репутация неоспоримаmlkn658776jvg репутация неоспоримаmlkn658776jvg репутация неоспоримаmlkn658776jvg репутация неоспорима
По умолчанию

Спасибо, Боря!

REM DATE 1981
REM GENRE Pop
PERFORMER "Amii Stewart"
TITLE "Images"
REM COMMENT Оцифровка Борис 63
FILE "AMII STEWART -Images- 1981.flac" WAVE
TRACK 01 AUDIO
TITLE "Where Did Our Love Go"
INDEX 01 00:00:00
TRACK 02 AUDIO
TITLE "Great Balls Of Fire"
INDEX 01 04:30:00
TRACK 03 AUDIO
TITLE "Save This Night For Love"
INDEX 01 08:40:00
TRACK 04 AUDIO
TITLE "Digital Love"
INDEX 01 12:12:00
TRACK 05 AUDIO
TITLE "Love Is Bad For Your Health"
INDEX 01 16:03:00
TRACK 06 AUDIO
TITLE "Why D'You Have To Be So Sexy"
INDEX 01 20:00:00
TRACK 07 AUDIO
TITLE "Tonight"
INDEX 01 23:28:00
TRACK 08 AUDIO
TITLE "Premiere"
INDEX 01 26:47:00
TRACK 09 AUDIO
TITLE "Don't Let Go Of Me"
INDEX 01 30:21:00
TRACK 10 AUDIO
TITLE "My Guy / My Girl"
INDEX 01 34:12:00
__________________
Long Live Rock'n'Roll !
mlkn658776jvg вне форума   Ответить с цитированием
5 пользователя(ей) сказали cпасибо:
ГеннадийС161 (02.09.2018), Борис 63 (02.09.2018), belomor30 (03.09.2018), cthutq_1956 (02.09.2018), poiuytrewq3377 (02.09.2018)
Старый 02.09.2018, 08:57   #3
cthutq_1956
VIP
 
Аватар для cthutq_1956
 

Регистрация: 17.11.2016
Адрес: Челябинск
Сообщений: 3,528
Сказал(а) спасибо: 6,130
Поблагодарили 1,889 раз(а) в 1,412 сообщениях
cthutq_1956 репутация неоспоримаcthutq_1956 репутация неоспоримаcthutq_1956 репутация неоспоримаcthutq_1956 репутация неоспоримаcthutq_1956 репутация неоспоримаcthutq_1956 репутация неоспоримаcthutq_1956 репутация неоспоримаcthutq_1956 репутация неоспоримаcthutq_1956 репутация неоспоримаcthutq_1956 репутация неоспоримаcthutq_1956 репутация неоспорима
По умолчанию

Борис спасибо за труды и ознакомление понравилось ,со второго раза расслушал Оцифровка с пластинки Игоря (Капитан_Воронин)
Спасибо ему.
cthutq_1956 вне форума   Ответить с цитированием
Пользователь сказал cпасибо:
Борис 63 (02.09.2018)
Старый 08.09.2018, 04:48   #4
belomor30
VIP
 
Аватар для belomor30
 

Регистрация: 28.10.2015
Адрес: Город Пермь
Сообщений: 300
Сказал(а) спасибо: 601
Поблагодарили 467 раз(а) в 191 сообщениях
belomor30 репутация неоспоримаbelomor30 репутация неоспоримаbelomor30 репутация неоспоримаbelomor30 репутация неоспоримаbelomor30 репутация неоспоримаbelomor30 репутация неоспоримаbelomor30 репутация неоспоримаbelomor30 репутация неоспоримаbelomor30 репутация неоспоримаbelomor30 репутация неоспоримаbelomor30 репутация неоспорима
По умолчанию

Издание Hansa International ‎ - 203 689, Germany. То есть т.н. первопресс.

На всякий случай - ссылка на куй для скачивания:

Amii Stewart (р)1981 Images
belomor30 вне форума   Ответить с цитированием
3 пользователя(ей) сказали cпасибо:
ДенисПоПов27 (08.09.2018), Борис 63 (17.10.2018), DeD (08.09.2018)
Старый 17.10.2018, 09:35   #5
poiuytrewq3377
Новичок
 
Аватар для poiuytrewq3377
 

Регистрация: 20.10.2016
Сообщений: 24
Сказал(а) спасибо: 31
Поблагодарили 7 раз(а) в 7 сообщениях
poiuytrewq3377 на пути к лучшему
По умолчанию

mlkn658776jvg,

Благодарю за cue.
poiuytrewq3377 вне форума   Ответить с цитированием
Ответ

Закладки

Опции темы
Опции просмотра

Ваши права в разделе
Вы не можете создавать новые темы
Вы не можете отвечать в темах
Вы не можете прикреплять вложения
Вы не можете редактировать свои сообщения

BB коды Вкл.
Смайлы Вкл.
[IMG] код Вкл.
HTML код Выкл.

Быстрый переход


Часовой пояс GMT, время: 12:18.


Powered by vBulletin® Version 3.8.2
Copyright ©2000 - 2018, Jelsoft Enterprises Ltd. Перевод: zCarot
Rambler's Top100 Республика Татарстан - Каталог сайтов