Все Тут Online
Все Тут Online
Новые сообщения
Все сообщения за последних 24 часа
Расширенный Поиск

   
Меню сайта:
Главная
Форум
Чат
- Online приложения:
- Игры
- Выбор стиля:
- FAQ
- Для начинающих

Вернуться   Все Тут Online > ОЦИФРОВКИ ВИНИЛА (Lossless) > Оцифровки ВИНИЛА пользователей нашего форума > Оцифровки Борис 63 (Technics SL-1200 MK3D // Victor QL-A7 [Audio-Technica AT440MLa] => Accuphase 200

Старый 24.01.2018, 08:19   #1
Борис 63
Супермодератор. Смотрящий за форумом. Модератор разделов оцифровок.
 
Аватар для Борис 63
 

Регистрация: 01.02.2010
Адрес: СССР Москва
Сообщений: 13,652
Сказал(а) спасибо: 7,642
Поблагодарили 44,930 раз(а) в 7,222 сообщениях
Борис 63 репутация неоспоримаБорис 63 репутация неоспоримаБорис 63 репутация неоспоримаБорис 63 репутация неоспоримаБорис 63 репутация неоспоримаБорис 63 репутация неоспоримаБорис 63 репутация неоспоримаБорис 63 репутация неоспоримаБорис 63 репутация неоспоримаБорис 63 репутация неоспоримаБорис 63 репутация неоспорима
По умолчанию (24/96) Владимир Высоцкий ‎– В Записях Михаила Шемякина (7 LP) (2013) {Bomba Music ‎– 033-811~817} (lossless FLAC) + mp3

Владимир Высоцкий ‎– В Записях Михаила Шемякина (7 LP) (2013) {Bomba Music ‎– 033-811~817}



Пластинка 1










Оцифровка с пластинок Игоря (Капитан_Воронин) - Спасибо ему.

Треклист:

01 Владимир Высоцкий - Тот, Кто Раньше С Нею Был
02 Владимир Высоцкий - До Свиданья, Таня
03 Владимир Высоцкий - Красное, Зелёное...
04 Владимир Высоцкий - Дайте Собакам Мяса
05 Владимир Высоцкий - Весна Ещё В Начале...
06 Владимир Высоцкий - Бодайбо
07 Владимир Высоцкий - О Нашей Встрече...
08 Владимир Высоцкий - Стахановец
09 Владимир Высоцкий - Про Сивку-Бурку (фрагмент)
10 Владимир Высоцкий - Речечка (народная песня)
11 Владимир Высоцкий - Рецидивист
12 Владимир Высоцкий - Четыре Масти
13 Владимир Высоцкий - Формулировка
14 Владимир Высоцкий - Счётчик
15 Владимир Высоцкий - Уголовный Кодекс
16 Владимир Высоцкий - Любовные Дела
17 Владимир Высоцкий - Стукач
18 Владимир Высоцкий - Так Оно И Есть..
19 Владимир Высоцкий - Эй, Шофёр...
20 Владимир Высоцкий - Побег На Рывок





Скрытый текст (вы должны зарегистрироваться или войти под своим логином):
У вас нет прав чтобы видеть скрытый текст, содержащейся здесь.


-----------------------------------------------------------------------------------------------------------------------------------------------

Пластинка 2







Треклист:

01 Владимир Высоцкий - Тау Кита
02 Владимир Высоцкий - Марш Космических Негодяев
03 Владимир Высоцкий - Патриции
04 Владимир Высоцкий - Второе 'Я'
05 Владимир Высоцкий - Ещё Не Вечер
06 Владимир Высоцкий - Пиратская Песня
07 Владимир Высоцкий - На Перовском На Базаре...
08 Владимир Высоцкий - Марафон
09 Владимир Высоцкий - На Дистанции Четвёрка Первачей
10 Владимир Высоцкий - В Ленинграде Городе...
11 Владимир Высоцкий - Ой, Где Был Я Вчера...
12 Владимир Высоцкий - Слухи
13 Владимир Высоцкий - Почему Аборигены Съели Кука
14 Владимир Высоцкий - Письмо В Редакцию
15 Владимир Высоцкий - Гербарий
16 Владимир Высоцкий - Зарисовка О Париже
17 Владимир Высоцкий - Французские Бесы
18 Владимир Высоцкий - Я Из Дела Ушёл





Скрытый текст (вы должны зарегистрироваться или войти под своим логином):
У вас нет прав чтобы видеть скрытый текст, содержащейся здесь.


----------------------------------------------------------------------------------------------------------------------------------------------

Пластинка 3






Треклист:

01 Владимир Высоцкий - Песня Завистника
02 Владимир Высоцкий - Лирическая Песня
03 Владимир Высоцкий - Личность В Штатском
04 Владимир Высоцкий - Диалог У Телевизора
05 Владимир Высоцкий - Милицейский Протокол
06 Владимир Высоцкий - Нат Пинкертон...
07 Владимир Высоцкий - Поездка В Город
08 Владимир Высоцкий - Смотрины
09 Владимир Высоцкий - Не Состоялось
10 Владимир Высоцкий - Про Жигули
11 Владимир Высоцкий - Инструкция
12 Владимир Высоцкий - Лекция О Международном Положении
13 Владимир Высоцкий - Аэрофлот
14 Владимир Высоцкий - Про Речку Вачу
15 Владимир Высоцкий - Кругом Пятьсот




Скрытый текст (вы должны зарегистрироваться или войти под своим логином):
У вас нет прав чтобы видеть скрытый текст, содержащейся здесь.


------------------------------------------------------------------------------------------------------------------------------------------------

Пластинка 4





Треклист:

01 Владимир Высоцкий - Пожары
02 Владимир Высоцкий - Все Ушли На Фронт
03 Владимир Высоцкий - Я Вырос В Ленинградскую Блокаду...
04 Владимир Высоцкий - Воздушный Бой
05 Владимир Высоцкий - Спасите Наши Души
06 Владимир Высоцкий - Чёрные Бушлаты
07 Владимир Высоцкий - Мы Вращаем Землю
08 Владимир Высоцкий - Бросьте Скуку...
09 Владимир Высоцкий - 'ЯК' Истребитель
10 Владимир Высоцкий - Тот, Который Не Стрелял
11 Владимир Высоцкий - Рядовой Борисов
12 Владимир Высоцкий - Полчаса До Атаки
13 Владимир Высоцкий - Вцепились Они В Высоту...
14 Владимир Высоцкий - Песня Лётчика
15 Владимир Высоцкий - Охота На Кабанов




Скрытый текст (вы должны зарегистрироваться или войти под своим логином):
У вас нет прав чтобы видеть скрытый текст, содержащейся здесь.


-------------------------------------------------------------------------------------

Пластинка 5






Треклист:

01 Владимир Высоцкий - Купола
02 Владимир Высоцкий - Разбойничья Песня
03 Владимир Высоцкий - Ярмарка
04 Владимир Высоцкий - Как Да Во Лесу Дремучем...
05 Владимир Высоцкий - Камень В Степи
06 Владимир Высоцкий - Вещий Олег
07 Владимир Высоцкий - Лукоморье
08 Владимир Высоцкий - Как По Волге-матушке...
09 Владимир Высоцкий - Она Была Чиста
10 Владимир Высоцкий - Сон Мне Снится...
11 Владимир Высоцкий - Выход В Город
12 Владимир Высоцкий - Кривая Да Нелёгкая
13 Владимир Высоцкий - То Ли В Избу...




Скрытый текст (вы должны зарегистрироваться или войти под своим логином):
У вас нет прав чтобы видеть скрытый текст, содержащейся здесь.


------------------------------------------------------------------------------------

Пластинка 6





Треклист:

01 Владимир Высоцкий - Поэтам
02 Владимир Высоцкий - Мой Друг Уехал В Магадан...
03 Владимир Высоцкий - Песня Микрофона
04 Владимир Высоцкий - Чужая Колея
05 Владимир Высоцкий - Горизонт
06 Владимир Высоцкий - Белое Безмолвие
07 Владимир Высоцкий - Баллада О Короткой Шее
08 Владимир Высоцкий - Штормит Весь Вечер...
09 Владимир Высоцкий - Банька По-белому
10 Владимир Высоцкий - Банька По-черному
11 Владимир Высоцкий - Ошибка Вышла
12 Владимир Высоцкий - Никакой Ошибки
13 Владимир Высоцкий - История Болезни




Скрытый текст (вы должны зарегистрироваться или войти под своим логином):
У вас нет прав чтобы видеть скрытый текст, содержащейся здесь.


--------------------------------------------------------------------------------------

Пластинка 7








Треклист:

01 Владимир Высоцкий - В Сон Мне Жёлтые Огни
02 Владимир Высоцкий - Погоня
03 Владимир Высоцкий - Чужой Дом
04 Владимир Высоцкий - Кони Привередливые
05 Владимир Высоцкий - Охота На Волков
06 Владимир Высоцкий - Конец Охоты На Волков
07 Владимир Высоцкий - Баллада О Книжных Детях
08 Владимир Высоцкий - Баллада О Любви
09 Владимир Высоцкий - Не Долюбил
10 Владимир Высоцкий - Памятник
11 Владимир Высоцкий - Райские Яблоки




Скрытый текст (вы должны зарегистрироваться или войти под своим логином):
У вас нет прав чтобы видеть скрытый текст, содержащейся здесь.











======================
======================


Все Диски в формате mp3--320kbps:

Скрытый текст (вы должны зарегистрироваться или войти под своим логином):
У вас нет прав чтобы видеть скрытый текст, содержащейся здесь.



__________________
Ccылка на тему: Как скачивать с Яндекс диска!

Чтобы быстро скачать чужой опубликованный файл, сохраните его на свой Диск. На вашем Диске файл окажется мгновенно, а свои файлы вы всегда можете скачать без ограничений.

Последний раз редактировалось Борис 63; 24.01.2018 в 14:53.
Борис 63 вне форума   Ответить с цитированием
13 пользователя(ей) сказали cпасибо:
Гаврила60 (24.01.2018), Вера (24.01.2018), Владимир 1733 (25.01.2018), аист (24.01.2018), Дмитрий (24.01.2018), Игорюха (24.01.2018), Корф (24.01.2018), GVS (28.09.2018), Lvovith10 (30.01.2018), mcse2000 (25.09.2018), таня50 (25.01.2018), УКС (03.02.2018), Якутский (24.01.2018)
Старый 24.01.2018, 09:31   #2
Борис 63
Супермодератор. Смотрящий за форумом. Модератор разделов оцифровок.
 
Аватар для Борис 63
 

Регистрация: 01.02.2010
Адрес: СССР Москва
Сообщений: 13,652
Сказал(а) спасибо: 7,642
Поблагодарили 44,930 раз(а) в 7,222 сообщениях
Борис 63 репутация неоспоримаБорис 63 репутация неоспоримаБорис 63 репутация неоспоримаБорис 63 репутация неоспоримаБорис 63 репутация неоспоримаБорис 63 репутация неоспоримаБорис 63 репутация неоспоримаБорис 63 репутация неоспоримаБорис 63 репутация неоспоримаБорис 63 репутация неоспоримаБорис 63 репутация неоспорима
По умолчанию

Фото яблок делать не буду , там только цифры меняются.

Фото конвертов лучше не получится - они в целофане.

При необходимости можно найти отсканированные картинки в сети.


Экземпляр № 327 (тираж ограничен)



__________________
Ccылка на тему: Как скачивать с Яндекс диска!

Чтобы быстро скачать чужой опубликованный файл, сохраните его на свой Диск. На вашем Диске файл окажется мгновенно, а свои файлы вы всегда можете скачать без ограничений.
Борис 63 вне форума   Ответить с цитированием
4 пользователя(ей) сказали cпасибо:
ДенисПоПов27 (25.01.2018), Вера (24.01.2018), Igor71 (24.01.2018), Сани (24.01.2018)
Старый 24.01.2018, 13:49   #3
Дмитрий
Music Group
 
Аватар для Дмитрий
 

Регистрация: 12.12.2008
Адрес: Москва прошлого тысячелетия.
Сообщений: 111,117
Сказал(а) спасибо: 27,088
Поблагодарили 120,513 раз(а) в 46,160 сообщениях
Дмитрий репутация неоспоримаДмитрий репутация неоспоримаДмитрий репутация неоспоримаДмитрий репутация неоспоримаДмитрий репутация неоспоримаДмитрий репутация неоспоримаДмитрий репутация неоспоримаДмитрий репутация неоспоримаДмитрий репутация неоспоримаДмитрий репутация неоспоримаДмитрий репутация неоспорима
Отправить сообщение для Дмитрий с помощью Skype™
По умолчанию

CUE ПЛАСТИНКА 1: https://yadi.sk/d/LmsOxrVe3RkAsz


Код:
REM GENRE "Автор. песня"
REM DATE 2013
REM COMMENT "Оцифровка - Борис 63"
TITLE "LP 1"
PERFORMER "Владимир Высоцкий"
FILE "А.flac" WAVE
  TRACK 01 AUDIO
TITLE "Тот, Кто Раньше С Нею Был"
PERFORMER "Владимир Высоцкий"
    INDEX 01 00:02:11
  TRACK 02 AUDIO
TITLE "До Свиданья, Таня"
PERFORMER "Владимир Высоцкий"
    INDEX 01 03:03:55
  TRACK 03 AUDIO
TITLE "Красное, Зелёное..."
PERFORMER "Владимир Высоцкий"
    INDEX 01 04:12:09
  TRACK 04 AUDIO
TITLE "Дайте Собакам Мяса"
PERFORMER "Владимир Высоцкий"
    INDEX 01 04:51:64
  TRACK 05 AUDIO
TITLE "Весна Ещё В Начале..."
PERFORMER "Владимир Высоцкий"
    INDEX 01 06:35:49
  TRACK 06 AUDIO
TITLE "Бодайбо"
PERFORMER "Владимир Высоцкий"
    INDEX 01 08:45:21
  TRACK 07 AUDIO
TITLE "О Нашей Встрече..."
PERFORMER "Владимир Высоцкий"
    INDEX 01 10:22:33
  TRACK 08 AUDIO
TITLE "Стахановец"
PERFORMER "Владимир Высоцкий"
    INDEX 01 12:10:10
  TRACK 09 AUDIO
TITLE "Про Сивку-Бурку (фрагмент)"
PERFORMER "Владимир Высоцкий"
    INDEX 01 15:15:19
  TRACK 10 AUDIO
TITLE "Речечка (народная песня)"
PERFORMER "Владимир Высоцкий"
    INDEX 01 15:58:32
FILE "В.flac" WAVE
  TRACK 11 AUDIO
TITLE "Рецидивист"
PERFORMER "Владимир Высоцкий"
    INDEX 01 00:02:67
  TRACK 12 AUDIO
TITLE "Четыре Масти"
PERFORMER "Владимир Высоцкий"
    INDEX 01 01:52:74
  TRACK 13 AUDIO
TITLE "Формулировка"
PERFORMER "Владимир Высоцкий"
    INDEX 01 03:37:53
  TRACK 14 AUDIO
TITLE "Счётчик"
PERFORMER "Владимир Высоцкий"
    INDEX 01 05:17:28
  TRACK 15 AUDIO
TITLE "Уголовный Кодекс"
PERFORMER "Владимир Высоцкий"
    INDEX 01 07:05:24
  TRACK 16 AUDIO
TITLE "Любовные Дела"
PERFORMER "Владимир Высоцкий"
    INDEX 01 08:52:13
  TRACK 17 AUDIO
TITLE "Стукач"
PERFORMER "Владимир Высоцкий"
    INDEX 01 10:40:02
  TRACK 18 AUDIO
TITLE "Так Оно И Есть.."
PERFORMER "Владимир Высоцкий"
    INDEX 01 12:51:38
  TRACK 19 AUDIO
TITLE "Эй, Шофёр..."
PERFORMER "Владимир Высоцкий"
    INDEX 01 14:59:07
  TRACK 20 AUDIO
TITLE "Побег На Рывок"
PERFORMER "Владимир Высоцкий"
    INDEX 01 16:09:51
CUE ПЛАСТИНКА 2: https://yadi.sk/d/vR0BOGeR3RkDfB

Код:

REM GENRE "Автор. песня"
REM DATE 2013
REM COMMENT "Оцифровка - Борис 63"
TITLE "LP 2"
PERFORMER "Владимир Высоцкий"
FILE "А.flac" WAVE
  TRACK 01 AUDIO
TITLE "Тау Кита"
PERFORMER "Владимир Высоцкий"
    INDEX 01 00:03:35
  TRACK 02 AUDIO
TITLE "Марш Космических Негодяев"
PERFORMER "Владимир Высоцкий"
    INDEX 01 03:36:25
  TRACK 03 AUDIO
TITLE "Патриции"
PERFORMER "Владимир Высоцкий"
    INDEX 01 05:44:21
  TRACK 04 AUDIO
TITLE "Второе 'Я'"
PERFORMER "Владимир Высоцкий"
    INDEX 01 08:11:65
  TRACK 05 AUDIO
TITLE "Ещё Не Вечер"
PERFORMER "Владимир Высоцкий"
    INDEX 01 10:44:67
  TRACK 06 AUDIO
TITLE "Пиратская Песня"
PERFORMER "Владимир Высоцкий"
    INDEX 01 13:19:37
  TRACK 07 AUDIO
TITLE "На Перовском На Базаре..."
PERFORMER "Владимир Высоцкий"
    INDEX 01 15:31:24
  TRACK 08 AUDIO
TITLE "Марафон"
PERFORMER "Владимир Высоцкий"
    INDEX 01 17:15:35
  TRACK 09 AUDIO
TITLE "На Дистанции Четвёрка Первачей"
PERFORMER "Владимир Высоцкий"
    INDEX 01 18:47:28
FILE "В.flac" WAVE
  TRACK 10 AUDIO
TITLE "В Ленинграде Городе..."
PERFORMER "Владимир Высоцкий"
    INDEX 01 00:03:12
  TRACK 11 AUDIO
TITLE "Ой, Где Был Я Вчера..."
PERFORMER "Владимир Высоцкий"
    INDEX 01 00:57:05
  TRACK 12 AUDIO
TITLE "Слухи"
PERFORMER "Владимир Высоцкий"
    INDEX 01 03:40:62
  TRACK 13 AUDIO
TITLE "Почему Аборигены Съели Кука"
PERFORMER "Владимир Высоцкий"
    INDEX 01 06:50:48
  TRACK 14 AUDIO
TITLE "Письмо В Редакцию"
PERFORMER "Владимир Высоцкий"
    INDEX 01 09:10:65
  TRACK 15 AUDIO
TITLE "Гербарий"
PERFORMER "Владимир Высоцкий"
    INDEX 01 14:01:05
  TRACK 16 AUDIO
TITLE "Зарисовка О Париже"
PERFORMER "Владимир Высоцкий"
    INDEX 01 19:25:12
  TRACK 17 AUDIO
TITLE "Французские Бесы"
PERFORMER "Владимир Высоцкий"
    INDEX 01 20:59:14
  TRACK 18 AUDIO
TITLE "Я Из Дела Ушёл"
PERFORMER "Владимир Высоцкий"
    INDEX 01 24:21:07
CUE ПЛАСТИНКА 3: https://yadi.sk/d/syaIaSsB3RkFWs

Код:


REM GENRE "Автор. песня"
REM DATE 2013
REM COMMENT "Оцифровка - Борис 63"
TITLE "LP 3"
PERFORMER "Владимир Высоцкий"
FILE "А.flac" WAVE
  TRACK 01 AUDIO
TITLE "Песня Завистника"
PERFORMER "Владимир Высоцкий"
    INDEX 01 00:02:60
  TRACK 02 AUDIO
TITLE "Лирическая Песня"
PERFORMER "Владимир Высоцкий"
    INDEX 01 01:46:11
  TRACK 03 AUDIO
TITLE "Личность В Штатском"
PERFORMER "Владимир Высоцкий"
    INDEX 01 05:21:46
  TRACK 04 AUDIO
TITLE "Диалог У Телевизора"
PERFORMER "Владимир Высоцкий"
    INDEX 01 07:21:01
  TRACK 05 AUDIO
TITLE "Милицейский Протокол"
PERFORMER "Владимир Высоцкий"
    INDEX 01 10:43:44
  TRACK 06 AUDIO
TITLE "Нат Пинкертон..."
PERFORMER "Владимир Высоцкий"
    INDEX 01 14:04:44
  TRACK 07 AUDIO
TITLE "Поездка В Город"
PERFORMER "Владимир Высоцкий"
    INDEX 01 17:11:15
  TRACK 08 AUDIO
TITLE "Смотрины"
PERFORMER "Владимир Высоцкий"
    INDEX 01 19:50:29
FILE "В.flac" WAVE
  TRACK 09 AUDIO
TITLE "Не Состоялось"
PERFORMER "Владимир Высоцкий"
    INDEX 01 00:02:64
  TRACK 10 AUDIO
TITLE "Про Жигули"
PERFORMER "Владимир Высоцкий"
    INDEX 01 03:06:62
  TRACK 11 AUDIO
TITLE "Инструкция"
PERFORMER "Владимир Высоцкий"
    INDEX 01 05:51:73
  TRACK 12 AUDIO
TITLE "Лекция О Международном Положении"
PERFORMER "Владимир Высоцкий"
    INDEX 01 10:38:68
  TRACK 13 AUDIO
TITLE "Аэрофлот"
PERFORMER "Владимир Высоцкий"
    INDEX 01 13:26:36
  TRACK 14 AUDIO
TITLE "Про Речку Вачу"
PERFORMER "Владимир Высоцкий"
    INDEX 01 16:55:35
  TRACK 15 AUDIO
TITLE "Кругом Пятьсот"
PERFORMER "Владимир Высоцкий"
    INDEX 01 20:01:28
CUE ПЛАСТИНКА 4: https://yadi.sk/d/vqfISwSs3RkGrS

Код:


REM GENRE "Автор. песня"
REM DATE 2013
REM COMMENT "Оцифровка - Борис 63"
TITLE "LP 4"
PERFORMER "Владимир Высоцкий"
FILE "А.flac" WAVE
  TRACK 01 AUDIO
TITLE "Пожары"
PERFORMER "Владимир Высоцкий"
    INDEX 01 00:02:69
  TRACK 02 AUDIO
TITLE "Все Ушли На Фронт"
PERFORMER "Владимир Высоцкий"
    INDEX 01 03:09:45
  TRACK 03 AUDIO
TITLE "Я Вырос В Ленинградскую Блокаду..."
PERFORMER "Владимир Высоцкий"
    INDEX 01 05:18:60
  TRACK 04 AUDIO
TITLE "Воздушный Бой"
PERFORMER "Владимир Высоцкий"
    INDEX 01 06:44:33
  TRACK 05 AUDIO
TITLE "Спасите Наши Души"
PERFORMER "Владимир Высоцкий"
    INDEX 01 08:52:60
  TRACK 06 AUDIO
TITLE "Чёрные Бушлаты"
PERFORMER "Владимир Высоцкий"
    INDEX 01 13:34:05
  TRACK 07 AUDIO
TITLE "Мы Вращаем Землю"
PERFORMER "Владимир Высоцкий"
    INDEX 01 17:12:19
FILE "В.flac" WAVE
  TRACK 08 AUDIO
TITLE "Бросьте Скуку..."
PERFORMER "Владимир Высоцкий"
    INDEX 01 00:02:50
  TRACK 09 AUDIO
TITLE "'ЯК' Истребитель"
PERFORMER "Владимир Высоцкий"
    INDEX 01 01:13:16
  TRACK 10 AUDIO
TITLE "Тот, Который Не Стрелял"
PERFORMER "Владимир Высоцкий"
    INDEX 01 04:58:39
  TRACK 11 AUDIO
TITLE "Рядовой Борисов"
PERFORMER "Владимир Высоцкий"
    INDEX 01 07:49:17
  TRACK 12 AUDIO
TITLE "Полчаса До Атаки"
PERFORMER "Владимир Высоцкий"
    INDEX 01 10:35:59
  TRACK 13 AUDIO
TITLE "Вцепились Они В Высоту..."
PERFORMER "Владимир Высоцкий"
    INDEX 01 13:05:60
  TRACK 14 AUDIO
TITLE "Песня Лётчика"
PERFORMER "Владимир Высоцкий"
    INDEX 01 14:36:47
  TRACK 15 AUDIO
TITLE "Охота На Кабанов"
PERFORMER "Владимир Высоцкий"
    INDEX 01 19:34:51
CUE ПЛАСТИНКА 5: https://yadi.sk/d/34kx9HlN3RkKu7

Код:


REM GENRE "Автор. песня"
REM DATE 2013
REM COMMENT "Оцифровка - Борис 63"
TITLE "LP 5"
PERFORMER "Владимир Высоцкий"
FILE "А.flac" WAVE
  TRACK 01 AUDIO
TITLE "Купола"
PERFORMER "Владимир Высоцкий"
    INDEX 01 00:01:60
  TRACK 02 AUDIO
TITLE "Разбойничья Песня"
PERFORMER "Владимир Высоцкий"
    INDEX 01 04:44:58
  TRACK 03 AUDIO
TITLE "Ярмарка"
PERFORMER "Владимир Высоцкий"
    INDEX 01 08:06:70
  TRACK 04 AUDIO
TITLE "Как Да Во Лесу Дремучем..."
PERFORMER "Владимир Высоцкий"
    INDEX 01 13:36:18
  TRACK 05 AUDIO
TITLE "Камень В Степи"
PERFORMER "Владимир Высоцкий"
    INDEX 01 16:14:26
  TRACK 06 AUDIO
TITLE "Вещий Олег"
PERFORMER "Владимир Высоцкий"
    INDEX 01 17:24:27
  TRACK 07 AUDIO
TITLE "Лукоморье"
PERFORMER "Владимир Высоцкий"
    INDEX 01 19:43:60
FILE "В.flac" WAVE
  TRACK 08 AUDIO
TITLE "Как По Волге-матушке..."
PERFORMER "Владимир Высоцкий"
    INDEX 01 00:02:64
  TRACK 09 AUDIO
TITLE "Она Была Чиста"
PERFORMER "Владимир Высоцкий"
    INDEX 01 03:51:47
  TRACK 10 AUDIO
TITLE "Сон Мне Снится..."
PERFORMER "Владимир Высоцкий"
    INDEX 01 06:15:14
  TRACK 11 AUDIO
TITLE "Выход В Город"
PERFORMER "Владимир Высоцкий"
    INDEX 01 08:46:00
  TRACK 12 AUDIO
TITLE "Кривая Да Нелёгкая"
PERFORMER "Владимир Высоцкий"
    INDEX 01 11:30:43
  TRACK 13 AUDIO
TITLE "То Ли В Избу..."
PERFORMER "Владимир Высоцкий"
    INDEX 01 19:51:08
CUE ПЛАСТИНКА 6: https://yadi.sk/d/OTZh8lSu3RkNfb

Код:


REM GENRE "Автор. песня"
REM DATE 2013
REM COMMENT "Оцифровка - Борис 63"
TITLE "LP 6"
PERFORMER "Владимир Высоцкий"
FILE "А.flac" WAVE
  TRACK 01 AUDIO
TITLE "Поэтам"
PERFORMER "Владимир Высоцкий"
    INDEX 01 00:04:01
  TRACK 02 AUDIO
TITLE "Мой Друг Уехал В Магадан..."
PERFORMER "Владимир Высоцкий"
    INDEX 01 02:15:18
  TRACK 03 AUDIO
TITLE "Песня Микрофона"
PERFORMER "Владимир Высоцкий"
    INDEX 01 04:26:12
  TRACK 04 AUDIO
TITLE "Чужая Колея"
PERFORMER "Владимир Высоцкий"
    INDEX 01 08:14:59
  TRACK 05 AUDIO
TITLE "Горизонт"
PERFORMER "Владимир Высоцкий"
    INDEX 01 11:49:72
  TRACK 06 AUDIO
TITLE "Белое Безмолвие"
PERFORMER "Владимир Высоцкий"
    INDEX 01 15:10:29
  TRACK 07 AUDIO
TITLE "Баллада О Короткой Шее"
PERFORMER "Владимир Высоцкий"
    INDEX 01 17:54:57
  TRACK 08 AUDIO
TITLE "Штормит Весь Вечер..."
PERFORMER "Владимир Высоцкий"
    INDEX 01 20:12:13
FILE "В.flac" WAVE
  TRACK 09 AUDIO
TITLE "Банька По-белому"
PERFORMER "Владимир Высоцкий"
    INDEX 01 00:03:14
  TRACK 10 AUDIO
TITLE "Банька По-черному"
PERFORMER "Владимир Высоцкий"
    INDEX 01 08:10:08
  TRACK 11 AUDIO
TITLE "Ошибка Вышла"
PERFORMER "Владимир Высоцкий"
    INDEX 01 11:11:31
  TRACK 12 AUDIO
TITLE "Никакой Ошибки"
PERFORMER "Владимир Высоцкий"
    INDEX 01 16:32:31
  TRACK 13 AUDIO
TITLE "История Болезни"
PERFORMER "Владимир Высоцкий"
    INDEX 01 19:28:73
CUE ПЛАСТИНКА 7: https://yadi.sk/d/DHdEL8Vp3RkNfd

Код:


REM GENRE "Автор. песня"
REM DATE 2013
REM COMMENT "Оцифровка - Борис 63"
TITLE "LP 7"
PERFORMER "Владимир Высоцкий"
FILE "А.flac" WAVE
  TRACK 01 AUDIO
TITLE "В Сон Мне Жёлтые Огни"
PERFORMER "Владимир Высоцкий"
    INDEX 01 00:02:60
  TRACK 02 AUDIO
TITLE "Погоня"
PERFORMER "Владимир Высоцкий"
    INDEX 01 04:44:20
  TRACK 03 AUDIO
TITLE "Чужой Дом"
PERFORMER "Владимир Высоцкий"
    INDEX 01 07:30:53
  TRACK 04 AUDIO
TITLE "Кони Привередливые"
PERFORMER "Владимир Высоцкий"
    INDEX 01 10:34:29
  TRACK 05 AUDIO
TITLE "Охота На Волков"
PERFORMER "Владимир Высоцкий"
    INDEX 01 15:29:47
  TRACK 06 AUDIO
TITLE "Конец Охоты На Волков"
PERFORMER "Владимир Высоцкий"
    INDEX 01 18:47:44
FILE "В.flac" WAVE
  TRACK 07 AUDIO
TITLE "Баллада О Книжных Детях"
PERFORMER "Владимир Высоцкий"
    INDEX 01 00:03:09
  TRACK 08 AUDIO
TITLE "Баллада О Любви"
PERFORMER "Владимир Высоцкий"
    INDEX 01 03:27:00
  TRACK 09 AUDIO
TITLE "Не Долюбил"
PERFORMER "Владимир Высоцкий"
    INDEX 01 08:11:20
  TRACK 10 AUDIO
TITLE "Памятник"
PERFORMER "Владимир Высоцкий"
    INDEX 01 12:27:70
  TRACK 11 AUDIO
TITLE "Райские Яблоки"
PERFORMER "Владимир Высоцкий"
    INDEX 01 16:38:35
__________________












Ccылка на тему: Как скачивать с Яндекс диска!

Чтобы быстро скачать чужой опубликованный файл, сохраните его на свой Диск. На вашем Диске файл окажется мгновенно, а свои файлы вы всегда можете скачать без ограничений. Для этого нужно пройти регистрацию на https://mail.yandex.ru/

Уж лучше голодать, чем что попало есть... И лучше одному, чем вместе с кем попало.

Не работают ссылки, не надо флудить в теме. Сообщите ЗДЕСЬ!




Скачал и не оставил комментарий - понизил релизёру мотивацию делиться с окружающими!

Команда Все Тут желает Вам приятного прослушивания!



Дмитрий вне форума   Ответить с цитированием
3 пользователя(ей) сказали cпасибо:
Глебушка (25.01.2018), аист (25.01.2018), Борис 63 (24.01.2018)
Старый 24.01.2018, 15:05   #4
Борис 63
Супермодератор. Смотрящий за форумом. Модератор разделов оцифровок.
 
Аватар для Борис 63
 

Регистрация: 01.02.2010
Адрес: СССР Москва
Сообщений: 13,652
Сказал(а) спасибо: 7,642
Поблагодарили 44,930 раз(а) в 7,222 сообщениях
Борис 63 репутация неоспоримаБорис 63 репутация неоспоримаБорис 63 репутация неоспоримаБорис 63 репутация неоспоримаБорис 63 репутация неоспоримаБорис 63 репутация неоспоримаБорис 63 репутация неоспоримаБорис 63 репутация неоспоримаБорис 63 репутация неоспоримаБорис 63 репутация неоспоримаБорис 63 репутация неоспорима
По умолчанию



__________________
Ccылка на тему: Как скачивать с Яндекс диска!

Чтобы быстро скачать чужой опубликованный файл, сохраните его на свой Диск. На вашем Диске файл окажется мгновенно, а свои файлы вы всегда можете скачать без ограничений.
Борис 63 вне форума   Ответить с цитированием
Пользователь сказал cпасибо:
аист (25.01.2018)
Старый 24.01.2018, 16:04   #5
Дмитрий
Music Group
 
Аватар для Дмитрий
 

Регистрация: 12.12.2008
Адрес: Москва прошлого тысячелетия.
Сообщений: 111,117
Сказал(а) спасибо: 27,088
Поблагодарили 120,513 раз(а) в 46,160 сообщениях
Дмитрий репутация неоспоримаДмитрий репутация неоспоримаДмитрий репутация неоспоримаДмитрий репутация неоспоримаДмитрий репутация неоспоримаДмитрий репутация неоспоримаДмитрий репутация неоспоримаДмитрий репутация неоспоримаДмитрий репутация неоспоримаДмитрий репутация неоспоримаДмитрий репутация неоспорима
Отправить сообщение для Дмитрий с помощью Skype™
По умолчанию

В формате MP3--320kbps перезаписал в цифре

Большим любителям авторской песни и шансона

761 mb

Скрытый текст (вы должны зарегистрироваться или войти под своим логином):
У вас нет прав чтобы видеть скрытый текст, содержащейся здесь.
__________________












Ccылка на тему: Как скачивать с Яндекс диска!

Чтобы быстро скачать чужой опубликованный файл, сохраните его на свой Диск. На вашем Диске файл окажется мгновенно, а свои файлы вы всегда можете скачать без ограничений. Для этого нужно пройти регистрацию на https://mail.yandex.ru/

Уж лучше голодать, чем что попало есть... И лучше одному, чем вместе с кем попало.

Не работают ссылки, не надо флудить в теме. Сообщите ЗДЕСЬ!




Скачал и не оставил комментарий - понизил релизёру мотивацию делиться с окружающими!

Команда Все Тут желает Вам приятного прослушивания!



Дмитрий вне форума   Ответить с цитированием
2 пользователя(ей) сказали cпасибо:
Глебушка (25.01.2018), УКС (03.02.2018)
Старый 25.01.2018, 03:33   #6
Корф
Модератор
 

Регистрация: 19.07.2010
Сообщений: 3,989
Сказал(а) спасибо: 3,992
Поблагодарили 14,585 раз(а) в 2,050 сообщениях
Корф репутация неоспоримаКорф репутация неоспоримаКорф репутация неоспоримаКорф репутация неоспоримаКорф репутация неоспоримаКорф репутация неоспоримаКорф репутация неоспоримаКорф репутация неоспоримаКорф репутация неоспоримаКорф репутация неоспоримаКорф репутация неоспорима
По умолчанию

Борис, Игорь, большое вам спасибо за В.С. Высоцкого. Высоцкий это наше наследие. Хорошая оцифровка.
Дмитрий, спасибо за cue.
__________________
Ccылка на тему: Как скачивать с Яндекс диска!

Чтобы быстро скачать чужой опубликованный файл, сохраните его на свой Диск. На вашем Диске файл окажется мгновенно, а свои файлы вы всегда можете скачать без ограничений.
Корф вне форума   Ответить с цитированием
3 пользователя(ей) сказали cпасибо:
Глебушка (05.08.2018), Дмитрий (25.01.2018), Борис 63 (25.01.2018)
Старый 25.09.2018, 21:46   #7
mcse2000
Новичок
 

Регистрация: 28.08.2018
Сообщений: 25
Сказал(а) спасибо: 30
Поблагодарили 5 раз(а) в 5 сообщениях
mcse2000 на пути к лучшему
По умолчанию

Спасибо за оцифровку. Как это издание по сравнению с LP 1987 года? Лучше/хуже?

Последний раз редактировалось mcse2000; 25.09.2018 в 21:51.
mcse2000 вне форума   Ответить с цитированием
Ответ

Закладки

Опции темы
Опции просмотра

Ваши права в разделе
Вы не можете создавать новые темы
Вы не можете отвечать в темах
Вы не можете прикреплять вложения
Вы не можете редактировать свои сообщения

BB коды Вкл.
Смайлы Вкл.
[IMG] код Вкл.
HTML код Выкл.

Быстрый переход


Часовой пояс GMT, время: 04:19.


Powered by vBulletin® Version 3.8.2
Copyright ©2000 - 2018, Jelsoft Enterprises Ltd. Перевод: zCarot
Rambler's Top100 Республика Татарстан - Каталог сайтов