Все Тут Online
Все Тут Online
Новые сообщения
Все сообщения за последних 24 часа
Расширенный Поиск

   
Меню сайта:
Главная
Форум
Чат
- Online приложения:
- Игры
- Выбор стиля:
- FAQ
- Для начинающих

Вернуться   Все Тут Online > ОЦИФРОВКИ ВИНИЛА (Lossless) > Оцифровки ВИНИЛА пользователей нашего форума > Оцифровки Борис 63 (Technics SL-1200 MK3D // Victor QL-A7 [Audio-Technica AT440MLa] => Accuphase 200

Старый 29.09.2018, 08:40   #1
Борис 63
Супермодератор. Смотрящий за форумом. Модератор разделов оцифровок.
 
Аватар для Борис 63
 

Регистрация: 01.02.2010
Адрес: СССР Москва
Сообщений: 13,646
Сказал(а) спасибо: 7,639
Поблагодарили 44,894 раз(а) в 7,217 сообщениях
Борис 63 репутация неоспоримаБорис 63 репутация неоспоримаБорис 63 репутация неоспоримаБорис 63 репутация неоспоримаБорис 63 репутация неоспоримаБорис 63 репутация неоспоримаБорис 63 репутация неоспоримаБорис 63 репутация неоспоримаБорис 63 репутация неоспоримаБорис 63 репутация неоспоримаБорис 63 репутация неоспорима
По умолчанию (24/96) SECRET SERVICE -Greatest hits- 1986 (Lossless)









Оцифровка с пластинки Игоря (Капитан_Воронин)
Спасибо ему.


ссылка

Скрытый текст (вы должны зарегистрироваться или войти под своим логином):
У вас нет прав чтобы видеть скрытый текст, содержащейся здесь.
__________________
Ccылка на тему: Как скачивать с Яндекс диска!

Чтобы быстро скачать чужой опубликованный файл, сохраните его на свой Диск. На вашем Диске файл окажется мгновенно, а свои файлы вы всегда можете скачать без ограничений.
Борис 63 вне форума   Ответить с цитированием
12 пользователя(ей) сказали cпасибо:
ДенисПоПов27 (29.09.2018), Вит70 (29.09.2018), belomor30 (03.10.2018), cthutq_1956 (29.09.2018), DeD (29.09.2018), марьяша (29.09.2018), Igor64 (29.09.2018), KINOLOG (29.09.2018), ТОМ (29.09.2018), ser (03.10.2018), serger.ger (29.09.2018), telez1159 (01.10.2018)
Старый 29.09.2018, 12:42   #2
cthutq_1956
VIP
 
Аватар для cthutq_1956
 

Регистрация: 17.11.2016
Адрес: Челябинск
Сообщений: 3,509
Сказал(а) спасибо: 6,085
Поблагодарили 1,878 раз(а) в 1,404 сообщениях
cthutq_1956 репутация неоспоримаcthutq_1956 репутация неоспоримаcthutq_1956 репутация неоспоримаcthutq_1956 репутация неоспоримаcthutq_1956 репутация неоспоримаcthutq_1956 репутация неоспоримаcthutq_1956 репутация неоспоримаcthutq_1956 репутация неоспоримаcthutq_1956 репутация неоспоримаcthutq_1956 репутация неоспоримаcthutq_1956 репутация неоспорима
По умолчанию

Цитата:
Сообщение от Борис 63 Посмотреть сообщение
Оцифровка с пластинки Игоря (Капитан_Воронин)
Спасибо ему.
огромное спасибо друзья ,замечательно
cthutq_1956 на форуме   Ответить с цитированием
Пользователь сказал cпасибо:
Борис 63 (29.09.2018)
Старый 29.09.2018, 17:10   #3
ДенисПоПов27
VIP
 

Регистрация: 29.03.2011
Сообщений: 3,236
Сказал(а) спасибо: 5,315
Поблагодарили 1,748 раз(а) в 1,068 сообщениях
ДенисПоПов27 репутация неоспоримаДенисПоПов27 репутация неоспоримаДенисПоПов27 репутация неоспоримаДенисПоПов27 репутация неоспоримаДенисПоПов27 репутация неоспоримаДенисПоПов27 репутация неоспоримаДенисПоПов27 репутация неоспоримаДенисПоПов27 репутация неоспоримаДенисПоПов27 репутация неоспоримаДенисПоПов27 репутация неоспоримаДенисПоПов27 репутация неоспорима
По умолчанию

Уже много копий этого пласта есть! Послушаем_с ыщо 1)
ДенисПоПов27 вне форума   Ответить с цитированием
Старый 03.10.2018, 15:59   #4
belomor30
VIP
 
Аватар для belomor30
 

Регистрация: 28.10.2015
Адрес: Город Пермь
Сообщений: 291
Сказал(а) спасибо: 595
Поблагодарили 450 раз(а) в 182 сообщениях
belomor30 репутация неоспоримаbelomor30 репутация неоспоримаbelomor30 репутация неоспоримаbelomor30 репутация неоспоримаbelomor30 репутация неоспоримаbelomor30 репутация неоспоримаbelomor30 репутация неоспоримаbelomor30 репутация неоспоримаbelomor30 репутация неоспоримаbelomor30 репутация неоспоримаbelomor30 репутация неоспорима
По умолчанию

SECRET SERVICE (p)1986 Greatest hits
/Wifon, LP 092, Poland (Licensed From - Sonet Grammofon AB)/

A1 Dancing In Madness
A2 Broken Hearts
A3 Over Town
A4 Oh Susie
A5 Crossing A River
A6 L.A. Goodbye

B1 If I Try
B2 Cry Softly
B3 Flash In The Night
B4 Ye-Si-Ca
B5 Give Me Your Love
B6 Ten O'Clock Postman


CUE-SHEET:

Secret Service (р)1986 Greatest Hits

Код:
REM GENRE Synth-pop / Electronic
REM DATE 1986
REM COMMENT "Equipment: 'Technics SL-1200 MK3D' => Audio-Technica AT440MLa => 'Accuphase 200'"
REM LABEL Wifon, LP 092, Poland (Licensed From - Sonet Grammofon AB)
REM COMMENT "Specially for http://vsetutonline.com"
REM COMMENT "Оцифровка - Борис 63"   
PERFORMER   "Secret Service"
TITLE "Greatest Hits"
FILE "STCRET SERVICE -Greatest hits-.flac" WAVE
  TRACK 01 AUDIO
    TITLE "Dancing In Madness"
    INDEX 01 00:16:00
  TRACK 02 AUDIO
    TITLE "Broken Hearts"
    INDEX 01 03:31:00
  TRACK 03 AUDIO
    TITLE "Over Town"
    INDEX 01 07:11:00
  TRACK 04 AUDIO
    TITLE "Oh Susie"
    INDEX 01 10:41:00
  TRACK 05 AUDIO
    TITLE "Crossing A River"
    INDEX 01 14:40:00
  TRACK 06 AUDIO
    TITLE "L.A. Goodbye"
    INDEX 01 18:25:00
  TRACK 07 AUDIO
    TITLE "If I Try"
    INDEX 01 21:50:00
  TRACK 08 AUDIO
    TITLE "Cry Softly"
    INDEX 01 25:29:50
  TRACK 09 AUDIO
    TITLE "Flash In The Night"
    INDEX 01 29:09:00
  TRACK 10 AUDIO
    TITLE "Ye-Si-Ca"
    INDEX 01 33:02:00
  TRACK 11 AUDIO
    TITLE "Give Me Your Love"
    INDEX 01 36:36:00
  TRACK 12 AUDIO
    TITLE "Ten O'Clock Postman"
    INDEX 01 40:47:00
belomor30 вне форума   Ответить с цитированием
5 пользователя(ей) сказали cпасибо:
Дмитрий (03.10.2018), Борис 63 (04.10.2018), cthutq_1956 (03.10.2018), ТОМ (06.10.2018), serger.ger (24.10.2018)
Ответ

Закладки

Опции темы
Опции просмотра

Ваши права в разделе
Вы не можете создавать новые темы
Вы не можете отвечать в темах
Вы не можете прикреплять вложения
Вы не можете редактировать свои сообщения

BB коды Вкл.
Смайлы Вкл.
[IMG] код Вкл.
HTML код Выкл.

Быстрый переход


Часовой пояс GMT, время: 12:14.


Powered by vBulletin® Version 3.8.2
Copyright ©2000 - 2018, Jelsoft Enterprises Ltd. Перевод: zCarot
Rambler's Top100 Республика Татарстан - Каталог сайтов