Все Тут Online
Все Тут Online
Новые сообщения
Все сообщения за последних 24 часа
Расширенный Поиск

   
Меню сайта:
Главная
Форум
Чат
- Online приложения:
- Игры
- Выбор стиля:
- FAQ
- Для начинающих

Вернуться   Все Тут Online > ОЦИФРОВКИ ВИНИЛА (Lossless) > Оцифровки ВИНИЛА пользователей нашего форума > Оцифровки Борис 63 (Technics SL-1200 MK3D // Victor QL-A7 [Audio-Technica AT440MLa] => Accuphase 200

Старый 19.10.2018, 06:33   #1
Борис 63
Супермодератор. Смотрящий за форумом. Модератор разделов оцифровок.
 
Аватар для Борис 63
 

Регистрация: 01.02.2010
Адрес: СССР Москва
Сообщений: 13,694
Сказал(а) спасибо: 7,690
Поблагодарили 45,080 раз(а) в 7,244 сообщениях
Борис 63 репутация неоспоримаБорис 63 репутация неоспоримаБорис 63 репутация неоспоримаБорис 63 репутация неоспоримаБорис 63 репутация неоспоримаБорис 63 репутация неоспоримаБорис 63 репутация неоспоримаБорис 63 репутация неоспоримаБорис 63 репутация неоспоримаБорис 63 репутация неоспоримаБорис 63 репутация неоспорима
По умолчанию (24/96) MADNESS (р)1984 Keep Moving (Geffen Records, XGHS 4022, Canada) (lossless)










Оцифровка с пластинки Игоря (Капитан_Воронин)
Спасибо ему.


ссылка

Скрытый текст (вы должны зарегистрироваться или войти под своим логином):
У вас нет прав чтобы видеть скрытый текст, содержащейся здесь.
__________________
Ccылка на тему: Как скачивать с Яндекс диска!

Чтобы быстро скачать чужой опубликованный файл, сохраните его на свой Диск. На вашем Диске файл окажется мгновенно, а свои файлы вы всегда можете скачать без ограничений.
Борис 63 вне форума   Ответить с цитированием
5 пользователя(ей) сказали cпасибо:
Владислав49 (19.10.2018), Дмитрий (19.10.2018), belomor30 (21.10.2018), cthutq_1956 (20.10.2018), Shtycer (22.10.2018)
Старый 20.10.2018, 10:34   #2
belomor30
VIP
 
Аватар для belomor30
 

Регистрация: 28.10.2015
Адрес: Город Пермь
Сообщений: 300
Сказал(а) спасибо: 601
Поблагодарили 467 раз(а) в 191 сообщениях
belomor30 репутация неоспоримаbelomor30 репутация неоспоримаbelomor30 репутация неоспоримаbelomor30 репутация неоспоримаbelomor30 репутация неоспоримаbelomor30 репутация неоспоримаbelomor30 репутация неоспоримаbelomor30 репутация неоспоримаbelomor30 репутация неоспоримаbelomor30 репутация неоспоримаbelomor30 репутация неоспорима
По умолчанию

MADNESS (р)1984 Keep Moving
(Geffen Records, XGHS 4022, Canada)

Tracklist:
A1. Keep Moving (3:31)
A2. Wings Of A Dove (A Celebratory Song) (3:00)
A3. The Sun And The Rain (3:16)
A4. Brand New Beat (3:16)
A5. March Of The Gherkins (3:29)
A6. Michael Caine (3:37)

B1. Prospects (4:13)
B2. Victoria Gardens (4:31)
B3. Samantha (3:13)
B4. One Better Day (4:06)
B5. Give Me A Reason (3:23)
B6. Turning Blue (3:06)


CUE-SHEET:
Madness (р)1984 Keep Moving

P.S.: Данное издание отличается трек-листом от оригинального. Уж чем канадцам не угодили некоторые треки - х.з.
belomor30 вне форума   Ответить с цитированием
3 пользователя(ей) сказали cпасибо:
Борис 63 (20.10.2018), cthutq_1956 (20.10.2018), Shtycer (22.10.2018)
Старый 20.10.2018, 10:37   #3
belomor30
VIP
 
Аватар для belomor30
 

Регистрация: 28.10.2015
Адрес: Город Пермь
Сообщений: 300
Сказал(а) спасибо: 601
Поблагодарили 467 раз(а) в 191 сообщениях
belomor30 репутация неоспоримаbelomor30 репутация неоспоримаbelomor30 репутация неоспоримаbelomor30 репутация неоспоримаbelomor30 репутация неоспоримаbelomor30 репутация неоспоримаbelomor30 репутация неоспоримаbelomor30 репутация неоспоримаbelomor30 репутация неоспоримаbelomor30 репутация неоспоримаbelomor30 репутация неоспорима
По умолчанию

Резервный Куй на всякий случай...
Код:
REM GENRE Ska / SkaRevival
REM DATE 1984
REM COMMENT "Equipment: 'Technics SL-1200 MK3D' => Audio-Technica AT440MLa => 'Accuphase C-200х' => 'Zoom h4n'"
REM COMMENT "Label: Geffen Records, XGHS 4022, Canada"
REM COMMENT "Specially for http://vsetutonline.com"
REM COMMENT "LP из коллекции - Капитан_Воронин"   
REM COMMENT "Оцифровка - Борис 63"
PERFORMER "Madness"
FILE "MADNESS -Keep Moving= 1984.flac" WAVE
TITLE "Keep Moving "
  TRACK 01 AUDIO
    TITLE "Keep Moving"
    INDEX 01 00:02:00
  TRACK 02 AUDIO
    TITLE "Wings Of A Dove (A Celebratory Song)"
    INDEX 01 03:36:00
  TRACK 03 AUDIO
    TITLE "The Sun And The Rain"
    INDEX 01 06:39:00
  TRACK 04 AUDIO
    TITLE "Brand New Beat"
    INDEX 01 09:58:00
  TRACK 05 AUDIO
    TITLE "March Of The Gherkins"
    INDEX 01 13:15:60
  TRACK 06 AUDIO
    TITLE "Michael Caine"
    INDEX 01 16:45:00
  TRACK 07 AUDIO
    TITLE "Prospects"
    INDEX 01 20:19:50
  TRACK 08 AUDIO
    TITLE "Victoria Gardens"
    INDEX 01 24:34:00
  TRACK 09 AUDIO
    TITLE "Samantha"
    INDEX 01 29:07:00
  TRACK 10 AUDIO
    TITLE "One Better Day"
    INDEX 01 32:20:00
  TRACK 11 AUDIO
    TITLE "Give Me A Reason"
    INDEX 01 36:27:00
  TRACK 12 AUDIO
    TITLE "Turning Blue"
    INDEX 01 39:52:00
belomor30 вне форума   Ответить с цитированием
3 пользователя(ей) сказали cпасибо:
Борис 63 (20.10.2018), cthutq_1956 (20.10.2018), Shtycer (22.10.2018)
Ответ

Закладки

Опции темы
Опции просмотра

Ваши права в разделе
Вы не можете создавать новые темы
Вы не можете отвечать в темах
Вы не можете прикреплять вложения
Вы не можете редактировать свои сообщения

BB коды Вкл.
Смайлы Вкл.
[IMG] код Вкл.
HTML код Выкл.

Быстрый переход


Часовой пояс GMT, время: 14:35.


Powered by vBulletin® Version 3.8.2
Copyright ©2000 - 2018, Jelsoft Enterprises Ltd. Перевод: zCarot
Rambler's Top100 Республика Татарстан - Каталог сайтов