Все Тут Online
Все Тут Online
Новые сообщения
Все сообщения за последних 24 часа
Расширенный Поиск

   
Меню сайта:
Главная
Форум
Чат
- Online приложения:
- Игры
- Выбор стиля:
- FAQ
- Для начинающих

Вернуться   Все Тут Online > МАГНИТИЗДАТ (Оцифровки Кассет и Бобин) (lossless) > РОК МУЗЫКА (Lossless) > Отечественная

Старый 08.04.2019, 10:46   #1
Капитан_Воронин
Команда
 

Регистрация: 03.07.2011
Сообщений: 480
Сказал(а) спасибо: 9
Поблагодарили 1,160 раз(а) в 299 сообщениях
Капитан_Воронин репутация неоспоримаКапитан_Воронин репутация неоспоримаКапитан_Воронин репутация неоспоримаКапитан_Воронин репутация неоспоримаКапитан_Воронин репутация неоспоримаКапитан_Воронин репутация неоспоримаКапитан_Воронин репутация неоспоримаКапитан_Воронин репутация неоспоримаКапитан_Воронин репутация неоспоримаКапитан_Воронин репутация неоспоримаКапитан_Воронин репутация неоспорима
По умолчанию КИНО – 2 Концерта 86г.

Магнитофон brAun С3
Программа WaveLab

КИНО – 2 Концерта 86г.

Концерт – 1



1. Транквилизатор
2. Бездельник I (Гуляю, я один гуляю)
3. Это не любовь
4. Троллейбус
5. Спокойная ночь
6. Время есть, а денег нет
7. Электричка
8. Следи за собой, папа
9. Алюминивые огурцы

Концерт – 2



10. Электричка
11. Бездельник I (Гуляю, я один гуляю)
12. Перемен
13. Время есть, а денег нет
14. Попробуй спеть вместе со мной
15. Мы хотим танцевать
16. Троллейбус
17. Когда-то ты был битником



Скрытый текст (вы должны зарегистрироваться или войти под своим логином):
У вас нет прав чтобы видеть скрытый текст, содержащейся здесь.


Скрытый текст (вы должны зарегистрироваться или войти под своим логином):
У вас нет прав чтобы видеть скрытый текст, содержащейся здесь.
Капитан_Воронин вне форума   Ответить с цитированием
14 пользователя(ей) сказали cпасибо:
300977mvh (09.04.2019), ДенисПоПов27 (08.04.2019), ГеннадийС161 (09.04.2019), Глебушка (10.04.2019), Дмитрий (08.04.2019), belomor30 (09.04.2019), Dimitry (08.04.2019), Лёшапопович (16.04.2019), Никита9988 (10.04.2019), iksel1 (Сегодня), ledcom (09.04.2019), lovnik (11.04.2019), фёдор1969 (09.04.2019), Pehterev (11.04.2019)
Старый 08.04.2019, 19:06   #2
ДенисПоПов27
VIP
 

Регистрация: 29.03.2011
Адрес: Где-то в России
Сообщений: 3,747
Сказал(а) спасибо: 6,348
Поблагодарили 1,990 раз(а) в 1,223 сообщениях
ДенисПоПов27 репутация неоспоримаДенисПоПов27 репутация неоспоримаДенисПоПов27 репутация неоспоримаДенисПоПов27 репутация неоспоримаДенисПоПов27 репутация неоспоримаДенисПоПов27 репутация неоспоримаДенисПоПов27 репутация неоспоримаДенисПоПов27 репутация неоспоримаДенисПоПов27 репутация неоспоримаДенисПоПов27 репутация неоспоримаДенисПоПов27 репутация неоспорима
По умолчанию

Беру!!!
ДенисПоПов27 вне форума   Ответить с цитированием
Пользователь сказал cпасибо:
iksel1 (Сегодня)
Старый 08.04.2019, 19:30   #3
Dimitry
VIP
 

Регистрация: 04.03.2019
Сообщений: 11
Сказал(а) спасибо: 94
Поблагодарили 2 раз(а) в 2 сообщениях
Dimitry на пути к лучшему
По умолчанию

Забрал
Dimitry вне форума   Ответить с цитированием
Пользователь сказал cпасибо:
ДенисПоПов27 (08.04.2019)
Старый 09.04.2019, 17:09   #4
belomor30
Команда
 
Аватар для belomor30
 

Регистрация: 28.10.2015
Адрес: Город Пермь
Сообщений: 823
Сказал(а) спасибо: 785
Поблагодарили 1,283 раз(а) в 534 сообщениях
belomor30 репутация неоспоримаbelomor30 репутация неоспоримаbelomor30 репутация неоспоримаbelomor30 репутация неоспоримаbelomor30 репутация неоспоримаbelomor30 репутация неоспоримаbelomor30 репутация неоспоримаbelomor30 репутация неоспоримаbelomor30 репутация неоспоримаbelomor30 репутация неоспоримаbelomor30 репутация неоспорима
По умолчанию

Скрытый текст (вы должны зарегистрироваться или войти под своим логином):
У вас нет прав чтобы видеть скрытый текст, содержащейся здесь.

Код:
REM GENRE Rock
REM DATE 1986
REM COMMENT "Cassette Deck 'brAun С3'->WaveLab"
REM COMMENT "Specially for http://vsetutonline.com"
REM COMMENT "CUE-Maker '---belomor30---'"
REM COMMENT "Оцифровка - Капитан_Воронин"
PERFORMER "Кино"
TITLE "Два концерта"
FILE "КИНО 86 - Концерт_.wav" WAVE
  TRACK 01 AUDIO
TITLE "Транквилизатор"
    INDEX 01 00:07:00
  TRACK 02 AUDIO
TITLE "Бездельник I"
    INDEX 01 05:39:50
  TRACK 03 AUDIO
TITLE "Это не любовь"
    INDEX 01 08:24:10
  TRACK 04 AUDIO
TITLE "Троллейбус"
    INDEX 01 11:57:20
  TRACK 05 AUDIO
TITLE "Спокойная ночь"
    INDEX 01 14:27:57
  TRACK 06 AUDIO
TITLE "Время есть, а денег нет"
    INDEX 01 20:10:00
  TRACK 07 AUDIO
TITLE "Электричка"
    INDEX 01 23:11:00
  TRACK 08 AUDIO
TITLE "Следи за собой, папа"
    INDEX 01 27:48:00
  TRACK 09 AUDIO
TITLE "Алюминивые огурцы"
    INDEX 01 32:37:00
  TRACK 10 AUDIO
TITLE "Электричка"
    INDEX 01 35:04:00
  TRACK 11 AUDIO
TITLE "Бездельник I"
    INDEX 01 38:00:25
  TRACK 12 AUDIO
TITLE "Перемен"
    INDEX 01 40:24:37
  TRACK 13 AUDIO
TITLE "Время есть, а денег нет"
    INDEX 01 45:22:20
  TRACK 14 AUDIO
TITLE "Попробуй спеть вместе со мной"
    INDEX 01 48:12:40
  TRACK 15 AUDIO
TITLE "Мы хотим танцевать"
    INDEX 01 51:39:25
  TRACK 16 AUDIO
TITLE "Троллейбус"
    INDEX 01 54:52:00
  TRACK 17 AUDIO
TITLE "Когда-то ты был битником"
    INDEX 01 57:15:00
belomor30 вне форума   Ответить с цитированием
5 пользователя(ей) сказали cпасибо:
ДенисПоПов27 (09.04.2019), ГеннадийС161 (09.04.2019), Глебушка (10.04.2019), Дмитрий (09.04.2019), Dimitry (09.04.2019)
Старый 09.04.2019, 18:58   #5
belomor30
Команда
 
Аватар для belomor30
 

Регистрация: 28.10.2015
Адрес: Город Пермь
Сообщений: 823
Сказал(а) спасибо: 785
Поблагодарили 1,283 раз(а) в 534 сообщениях
belomor30 репутация неоспоримаbelomor30 репутация неоспоримаbelomor30 репутация неоспоримаbelomor30 репутация неоспоримаbelomor30 репутация неоспоримаbelomor30 репутация неоспоримаbelomor30 репутация неоспоримаbelomor30 репутация неоспоримаbelomor30 репутация неоспоримаbelomor30 репутация неоспоримаbelomor30 репутация неоспорима
По умолчанию

В данном виде эта запись издавалась под названием "Неизвестные записи 3. Рок-фестиваль в ДК Связи, Москва"
belomor30 вне форума   Ответить с цитированием
Пользователь сказал cпасибо:
iksel1 (Сегодня)
Старый 11.04.2019, 03:54   #6
Pehterev
Новичок
 

Регистрация: 27.03.2019
Сообщений: 2
Сказал(а) спасибо: 26
Поблагодарили 0 раз(а) в 0 сообщениях
Pehterev на пути к лучшему
По умолчанию

С пасибо
Pehterev вне форума   Ответить с цитированием
Старый 11.04.2019, 16:04   #7
lovnik
Новичок
 
Аватар для lovnik
 

Регистрация: 31.12.2018
Сообщений: 10
Сказал(а) спасибо: 102
Поблагодарили 5 раз(а) в 4 сообщениях
lovnik на пути к лучшему
По умолчанию

Been reading and hearing for years, from my Soviet (later, Russian & Ukrainian) friends, about how great the band Кино -- and in particular Виктор Цой -- were back in the 1980s.

Well, now I have a copy of a live performance, so it's time for me to hear them for myself.

Thanks for sharing this rip, Капитан...

- edwin, an American in France
lovnik вне форума   Ответить с цитированием
Старый 15.04.2019, 14:05   #8
vud
Новичок
 

Регистрация: 23.03.2019
Сообщений: 13
Сказал(а) спасибо: 19
Поблагодарили 2 раз(а) в 2 сообщениях
vud на пути к лучшему
По умолчанию

vud вне форума   Ответить с цитированием
Старый 16.04.2019, 08:40   #9
lovnik
Новичок
 
Аватар для lovnik
 

Регистрация: 31.12.2018
Сообщений: 10
Сказал(а) спасибо: 102
Поблагодарили 5 раз(а) в 4 сообщениях
lovnik на пути к лучшему
По умолчанию

Note:

Nice material & songs. Kino's style reminds me a little bit of the so-called (first) New Wave in America, mainly out of New York City, in particular the work of (early) Talking Heads and the band called Television.

Excellent concerts, thanks again for sharing these with us @Капитан_Воронин.

- edwin
lovnik вне форума   Ответить с цитированием
Старый 16.04.2019, 09:50   #10
Капитан_Воронин
Команда
 

Регистрация: 03.07.2011
Сообщений: 480
Сказал(а) спасибо: 9
Поблагодарили 1,160 раз(а) в 299 сообщениях
Капитан_Воронин репутация неоспоримаКапитан_Воронин репутация неоспоримаКапитан_Воронин репутация неоспоримаКапитан_Воронин репутация неоспоримаКапитан_Воронин репутация неоспоримаКапитан_Воронин репутация неоспоримаКапитан_Воронин репутация неоспоримаКапитан_Воронин репутация неоспоримаКапитан_Воронин репутация неоспоримаКапитан_Воронин репутация неоспоримаКапитан_Воронин репутация неоспорима
По умолчанию

Пожалуйста, lovnik
Капитан_Воронин вне форума   Ответить с цитированием
Ответ

Закладки

Опции темы
Опции просмотра

Ваши права в разделе
Вы не можете создавать новые темы
Вы не можете отвечать в темах
Вы не можете прикреплять вложения
Вы не можете редактировать свои сообщения

BB коды Вкл.
Смайлы Вкл.
[IMG] код Вкл.
HTML код Выкл.

Быстрый переход


Часовой пояс GMT, время: 21:03.


Powered by vBulletin® Version 3.8.2
Copyright ©2000 - 2019, Jelsoft Enterprises Ltd. Перевод: zCarot
Rambler's Top100 Республика Татарстан - Каталог сайтов