Все Тут Online
Все Тут Online
Новые сообщения
Все сообщения за последних 24 часа
Расширенный Поиск

   
Меню сайта:
Главная
Форум
Чат
- Online приложения:
- Игры
- Выбор стиля:
- FAQ
- Для начинающих

Вернуться   Все Тут Online > Разное с просторов интернета > Музыка

Старый 30.05.2017, 03:10   #1
shurele
Местный
 
Аватар для shurele
 

Регистрация: 09.04.2016
Адрес: Германия
Сообщений: 1,496
Сказал(а) спасибо: 162
Поблагодарили 5,095 раз(а) в 977 сообщениях
shurele репутация неоспоримаshurele репутация неоспоримаshurele репутация неоспоримаshurele репутация неоспоримаshurele репутация неоспоримаshurele репутация неоспоримаshurele репутация неоспоримаshurele репутация неоспоримаshurele репутация неоспоримаshurele репутация неоспоримаshurele репутация неоспорима
По умолчанию Ля-Миноръ - "Она была первой"

Ля-Миноръ

"Она была первой"




Четвертый студийный альбом ансамбля Ля-Миноръ - "Она была первой", подарок моих учеников (бывших), Славы Шалыгина и Димы Давыдова, соответственно солиста и ударника ансамбля.

Чем отличается блатняк от шансона?… Шуфутинский - блатняк. "Ля Миноръ" - шансон. Шуфутинского слушают таксисты в помятых "пятерках".
Группу "Ля Миноръ" слушает прогрессивное студенчество в Red Club'е и Грибоедове.
- журнал "100% Красный"
Ансамбль "Ля-Миноръ" впервые выступил в Red Club-е в ноябре 2000, и с этого момента их легкое джазово-урбанистическое звучание пользуется огромным успехом среди завсегдатаев питерских клубов…
- газета "The St. Petersburg Times"
Ля-Миноръ" чрезвычайно популярен у посетителей ночных клубов.
Музыка веселая и громкая, текст по-русски задушевный. Хочешь - танцуй, хочешь - подпевай. Именно так выглядит фирменная русская легкая музыка.



Альбом: "Она была первой"
Исполнитель: Ля-Миноръ
Год выпуска: 2013
Время звучания: 00:44:39
Жанр: шансон » романс городской
Формат: FLAC (tracks)/ MP3 (320) (tracks)
Качество: Lossless
Количество треков: 12
Размер архива: flac - 375 Mb; mp3 (320kbps) - 118 Mb
Язык релиза: русский

Содержание:

01. Фотография
02. Девушка из Нагасаки
03. Она была первой
04. Осень
05. Однажды жарким летом
06. На бульваре Гоголя
07. Ленинградские мосты
08. Bang Bang
09. У Черного моря
10. Я в весеннем лесу
11. Воронежский ковбой
12. Снег идет на улице давно






Код:
Exact Audio Copy V1.0 beta 3 from 29. August 2011

EAC extraction logfile from 22. May 2017, 9:41

Ля-МинорЪ / Она была первой

Used drive  : TSSTcorpCDDVDW SH-216DB   Adapter: 0  ID: 0

Read mode               : Secure
Utilize accurate stream : Yes
Defeat audio cache      : Yes
Make use of C2 pointers : No

Read offset correction                      : 6
Overread into Lead-In and Lead-Out          : No
Fill up missing offset samples with silence : Yes
Delete leading and trailing silent blocks   : No
Null samples used in CRC calculations       : Yes
Used interface                              : Native Win32 interface for Win NT & 2000

Used output format              : User Defined Encoder
Selected bitrate                : 1024 kBit/s
Quality                         : High
Add ID3 tag                     : No
Command line compressor         : C:\Program Files (x86)\Exact Audio Copy\Flac\flac.exe
Additional command line options : -V -8 -T "Date=%year%" -T "Genre=%genre%" %source%


TOC of the extracted CD

     Track |   Start  |  Length  | Start sector | End sector 
    ---------------------------------------------------------
        1  |  0:00.00 |  3:13.00 |         0    |    14474   
        2  |  3:13.00 |  6:00.00 |     14475    |    41474   
        3  |  9:13.00 |  4:13.51 |     41475    |    60500   
        4  | 13:26.51 |  3:16.00 |     60501    |    75200   
        5  | 16:42.51 |  2:46.64 |     75201    |    87714   
        6  | 19:29.40 |  5:54.28 |     87715    |   114292   
        7  | 25:23.68 |  2:24.38 |    114293    |   125130   
        8  | 27:48.31 |  3:24.44 |    125131    |   140474   
        9  | 31:13.00 |  4:12.00 |    140475    |   159374   
       10  | 35:25.00 |  4:11.18 |    159375    |   178217   
       11  | 39:36.18 |  4:18.62 |    178218    |   197629   
       12  | 43:55.05 |  4:16.41 |    197630    |   216870   


Range status and errors

Selected range

     Filename L:\Private\My Audio Ripps\ CD - RIPS\Ля-МинорЪ - Она была первой\Ля-МинорЪ - Она была первой.wav

     Peak level 100.0 %
     Extraction speed 4.6 X
     Range quality 100.0 %
     Test CRC 37D5B130
     Copy CRC 37D5B130
     Copy OK

No errors occurred

 
AccurateRip summary
 
Track  1  not present in database
Track  2  not present in database
Track  3  not present in database
Track  4  not present in database
Track  5  not present in database
Track  6  not present in database
Track  7  not present in database
Track  8  not present in database
Track  9  not present in database
Track 10  not present in database
Track 11  not present in database
Track 12  not present in database
 
None of the tracks are present in the AccurateRip database

End of status report

==== Log checksum 7D980E8B8340014A890B89E569687CD93C17491AAADB5F4769804913D0009AC5 ====

Рип - мой



Страна: Россия
Издатель (лейбл): LaMinorRecords
Формат: FLAC / MP3 (320)
Параметры: CD, Album, Rip, image, log, cue
Источник: СД из собственной коллекции


Скрытый текст (вы должны зарегистрироваться или войти под своим логином):
У вас нет прав чтобы видеть скрытый текст, содержащейся здесь.
__________________
Ccылка на тему: Как скачивать с Яндекс диска!

Чтобы быстро скачать чужой опубликованный файл, сохраните его на свой Диск. На вашем Диске файл окажется мгновенно, а свои файлы вы всегда можете скачать без ограничений.

Последний раз редактировалось shurele; 30.05.2017 в 18:23.
shurele вне форума   Ответить с цитированием
16 пользователя(ей) сказали cпасибо:
Бархан (30.04.2018), Игорюха (30.05.2017), edd1966 (30.05.2017), Корф (30.05.2017), exeptions_1 (02.06.2017), FLHTYFKBY (30.05.2017), параллепипед (09.03.2019), марьяша (22.02.2019), ibresih (23.06.2017), Никита9988 (30.05.2017), more70 (20.07.2019), сафрон (15.08.2017), oplombee (06.04.2019), tu16 (31.05.2017), victor1953 (30.05.2017), юрий алексеевич (22.02.2019)
Старый 21.02.2019, 19:16   #2
vmpost
Пользователь
 

Регистрация: 17.02.2019
Сообщений: 78
Сказал(а) спасибо: 381
Поблагодарили 17 раз(а) в 15 сообщениях
vmpost скоро придёт к известности
По умолчанию

Спасибо, наконец-то нормальная сслка, благодарствую
vmpost вне форума   Ответить с цитированием
Ответ

Закладки

Опции темы
Опции просмотра

Ваши права в разделе
Вы не можете создавать новые темы
Вы не можете отвечать в темах
Вы не можете прикреплять вложения
Вы не можете редактировать свои сообщения

BB коды Вкл.
Смайлы Вкл.
[IMG] код Вкл.
HTML код Выкл.

Быстрый переход


Часовой пояс GMT, время: 11:53.


Powered by vBulletin® Version 3.8.2
Copyright ©2000 - 2020, Jelsoft Enterprises Ltd. Перевод: zCarot
Rambler's Top100 Республика Татарстан - Каталог сайтов