Все Тут Online

   
Меню сайта:
Главная
Форум
Чат
- Online приложения:
- Игры
- Выбор стиля:
- FAQ
- Для начинающих

Вернуться   Все Тут Online > МАГНИТИЗДАТ (Оцифровки Кассет и Бобин) (lossless) > В гостях у Бориса 63 (Оцифровки с бобин и с кассет) > Поп Музыка (Lossless)

загрузка...
Ответ
 
Опции темы Опции просмотра
Старый 13.06.2013, 06:25   #1
Дмитрий
Music Group
 
Аватар для Дмитрий
 

Регистрация: 12.12.2008
Адрес: Москва прошлого тысячелетия.
Сообщений: 101,556
Сказал(а) спасибо: 23,092
Поблагодарили 101,769 раз(а) в 40,899 сообщениях
Дмитрий репутация неоспоримаДмитрий репутация неоспоримаДмитрий репутация неоспоримаДмитрий репутация неоспоримаДмитрий репутация неоспоримаДмитрий репутация неоспоримаДмитрий репутация неоспоримаДмитрий репутация неоспоримаДмитрий репутация неоспоримаДмитрий репутация неоспоримаДмитрий репутация неоспорима
Отправить сообщение для Дмитрий с помощью Skype™
По умолчанию Как добавить CUE к скаченному образу кассеты и катушки

загрузка...
Создаём в папке, в которую скачен образ (*.FLAC или *.WAV) текстовой документ (*.TXT), выделяем текст CUE из релиза и копируем текст, после переименовываем (*.TXT) в (*.CUE)

Отображения разрешения файлов естественно надо включить
(панель управления - параметры папок - вкладка вид - снять галочку с "Скрывать расширения для зарегистрированных типов файлов").
__________________










Ccылка на тему: Как скачивать с Яндекс диска!

Чтобы быстро скачать чужой опубликованный файл, сохраните его на свой Диск. На вашем Диске файл окажется мгновенно, а свои файлы вы всегда можете скачать без ограничений. Для этого нужно пройти регистрацию на https://mail.yandex.ru/

Уж лучше голодать, чем что попало есть... И лучше одному, чем вместе с кем попало.

Не работают ссылки, не надо флудить в теме. Сообщите ЗДЕСЬ!




Форум не против размещения раздач на других ресурсах. Скачал и не оставил комментарий - понизил релизёру мотивацию делиться с окружающими!

Команда Все Тут желает Вам приятного прослушивания!



Дмитрий вне форума   Ответить с цитированием
2 пользователя(ей) сказали cпасибо:
tiger 1974 (22.08.2013), Wite (26.09.2013)
Старый 08.09.2013, 14:00   #2
Серёга_81
Команда
 

Регистрация: 06.09.2013
Адрес: г.Москва
Сообщений: 333
Сказал(а) спасибо: 421
Поблагодарили 833 раз(а) в 147 сообщениях
Серёга_81 репутация неоспоримаСерёга_81 репутация неоспоримаСерёга_81 репутация неоспоримаСерёга_81 репутация неоспоримаСерёга_81 репутация неоспоримаСерёга_81 репутация неоспоримаСерёга_81 репутация неоспоримаСерёга_81 репутация неоспоримаСерёга_81 репутация неоспоримаСерёга_81 репутация неоспоримаСерёга_81 репутация неоспорима
По умолчанию

Прошу помочь в решении вопроса. Два дня уже бьюсь над тем, чтобы подружить образ оцифровки и написанный мною Cue Sheet. Но пока все безрезультатно. Footbar 2000 при попытке воспроизвести cue выдает ошибку воспроизведения.
Cue Sheet создавал, как автор этой темы.http://vsetutonline.com/forum/showthread.php?t=44622.
Вот сам этот мною созданный Cue Sheet:
Цитата:
REM GENRE Shanson
REM DATE 1993
REM COMMENT "Rip by Серега_81"
TITLE "Магнитоальбом"
PERFORMER "Арбуз-Матрос"
FILE "Группа Арбуз-Матрос 1993.flac" WAVE
TRACK 01 AUDIO
TITLE "Любер"
PERFORMER "Арбуз-Матрос"
INDEX 01 00:00:00
TRACK 02 AUDIO
TITLE "Люберка"
PERFORMER "Арбуз-Матрос"
INDEX 01 04:18:55
TRACK 03 AUDIO
TITLE "Май"
PERFORMER "Арбуз-Матрос"
INDEX 01 08:38:59
TRACK 04 AUDIO
TITLE "Трава"
PERFORMER "Арбуз-Матрос"
INDEX 01 13:13:27
TRACK 05 AUDIO
TITLE "Розы"
PERFORMER "Арбуз-Матрос"
INDEX 01 16:40:40
TRACK 06 AUDIO
TITLE "Кукла"
PERFORMER "Арбуз-Матрос"
INDEX 01 23:41:16
TRACK 07 AUDIO
TITLE "Прощай"
PERFORMER "Арбуз-Матрос"
INDEX 01 27:30:59
TRACK 08 AUDIO
TITLE "Нетрудовые доходы"
PERFORMER "Арбуз-Матрос"
INDEX 01 32:36:00
TRACK 09 AUDIO
TITLE "Самогон"
PERFORMER "Арбуз-Матрос"
INDEX 01 34:54:00
TRACK 10 AUDIO
TITLE "Та,что любит"
PERFORMER "Арбуз-Матрос"
INDEX 01 37:09:59
TRACK 11 AUDIO
TITLE "Гласность"
PERFORMER "Арбуз-Матрос"
INDEX 01 41:53:54
TRACK 12 AUDIO
TITLE "Канзас"
PERFORMER "Матвей Ростов"
INDEX 01 43:47:20
Подскажите, пожалуйста, всё ли верно? Просто готовы, пока, три оцифровки, с которыми я хотел бы поделиться,но не могу, поскольку не решу проблему с Cue Sheet.

Последний раз редактировалось Серёга_81; 08.09.2013 в 14:07.
Серёга_81 вне форума   Ответить с цитированием
Старый 08.09.2013, 14:02   #3
Дмитрий
Music Group
 
Аватар для Дмитрий
 

Регистрация: 12.12.2008
Адрес: Москва прошлого тысячелетия.
Сообщений: 101,556
Сказал(а) спасибо: 23,092
Поблагодарили 101,769 раз(а) в 40,899 сообщениях
Дмитрий репутация неоспоримаДмитрий репутация неоспоримаДмитрий репутация неоспоримаДмитрий репутация неоспоримаДмитрий репутация неоспоримаДмитрий репутация неоспоримаДмитрий репутация неоспоримаДмитрий репутация неоспоримаДмитрий репутация неоспоримаДмитрий репутация неоспоримаДмитрий репутация неоспорима
Отправить сообщение для Дмитрий с помощью Skype™
По умолчанию

Серёга_81, FILE "Группа Арбуз-Матрос 1993.flac" WAVE

строка Группа Арбуз-Матрос 1993.flac должна совпадать с названием FLAC файла в папке. Выставляй обязательно, если что поправлю.
__________________










Ccылка на тему: Как скачивать с Яндекс диска!

Чтобы быстро скачать чужой опубликованный файл, сохраните его на свой Диск. На вашем Диске файл окажется мгновенно, а свои файлы вы всегда можете скачать без ограничений. Для этого нужно пройти регистрацию на https://mail.yandex.ru/

Уж лучше голодать, чем что попало есть... И лучше одному, чем вместе с кем попало.

Не работают ссылки, не надо флудить в теме. Сообщите ЗДЕСЬ!




Форум не против размещения раздач на других ресурсах. Скачал и не оставил комментарий - понизил релизёру мотивацию делиться с окружающими!

Команда Все Тут желает Вам приятного прослушивания!



Дмитрий вне форума   Ответить с цитированием
Пользователь сказал cпасибо:
Серёга_81 (08.09.2013)
Старый 08.09.2013, 14:13   #4
anatol1961
Супер-модератор - технический консультант
 
Аватар для anatol1961
 

Регистрация: 17.01.2009
Адрес: На юге... Северного Ледовитого океана
Сообщений: 6,304
Сказал(а) спасибо: 1,114
Поблагодарили 7,362 раз(а) в 2,730 сообщениях
anatol1961 репутация неоспоримаanatol1961 репутация неоспоримаanatol1961 репутация неоспоримаanatol1961 репутация неоспоримаanatol1961 репутация неоспоримаanatol1961 репутация неоспоримаanatol1961 репутация неоспоримаanatol1961 репутация неоспоримаanatol1961 репутация неоспоримаanatol1961 репутация неоспоримаanatol1961 репутация неоспорима
Отправить сообщение для anatol1961 с помощью Skype™
По умолчанию

Серёга_81, Вот это все

REM GENRE Shanson
REM DATE 1993
REM COMMENT "Rip by Серега_81"
TITLE "Магнитоальбом"
PERFORMER "Арбуз-Матрос"


рюшечки, которые можно добавить потом . Главное же в cue из этого

FILE "Группа Арбуз-Матрос 1993.flac" WAVE
TRACK 01 AUDIO
TITLE "Любер"
PERFORMER "Арбуз-Матрос"
INDEX 01 00:00:00
TRACK 02 AUDIO
TITLE "Люберка"
PERFORMER "Арбуз-Матрос"
INDEX 01 04:18:55
TRACK 03 AUDIO....

ну и так далее .

Вот что:

FILE "Название файла.format" WAVE
TRACK 01 AUDIO
INDEX 01 00:00:00
TRACK 02 AUDIO
INDEX 01 04:18:55
TRACK 03 AUDIO....

Уже в таком виде cue должен читаться и воспроизводиться в foobar нормально.

А уж потом можно и добавить при желании все рюшечки.

Вообще можно взять любой cue от любого диска , поменять в строке
FILE "Название файла.format" WAVE
данные на свои и все должно работать. Естественно названия треков и время не будут
соответствовать действительности...
Потом просто придется подкорректировать.

Не знаю - понятно объяснил ?
__________________
Кто ничего не ждёт, никогда не будет разочарован.
Эрих Мария Ремарк



RLU.RU - сервис коротких ссылок


Зарабатываем деньги смартфоном в системе AppTools
подробнее

Не говорите, что мне нужно делать, тогда я не скажу куда вам пойти.
anatol1961 вне форума   Ответить с цитированием
2 пользователя(ей) сказали cпасибо:
Дмитрий (08.09.2013), Серёга_81 (08.09.2013)
Старый 08.09.2013, 14:20   #5
Серёга_81
Команда
 

Регистрация: 06.09.2013
Адрес: г.Москва
Сообщений: 333
Сказал(а) спасибо: 421
Поблагодарили 833 раз(а) в 147 сообщениях
Серёга_81 репутация неоспоримаСерёга_81 репутация неоспоримаСерёга_81 репутация неоспоримаСерёга_81 репутация неоспоримаСерёга_81 репутация неоспоримаСерёга_81 репутация неоспоримаСерёга_81 репутация неоспоримаСерёга_81 репутация неоспоримаСерёга_81 репутация неоспоримаСерёга_81 репутация неоспоримаСерёга_81 репутация неоспорима
По умолчанию

Дмитрий, Спасибо Огромное. А ларчик то, оказывается, легко открывался. Поменял название flac файла и Cue Sheet Арбуз-Матрос 1993 на Группа Арбуз-Матрос 1993, и Footbar 2000 это с удовольствием съел)))). Сейчас поставлю на заливку Арбуз-Матроса и буду писать Cue к Попугай-93 и Студии Гран-При 91)))

Последний раз редактировалось Серёга_81; 08.09.2013 в 14:23.
Серёга_81 вне форума   Ответить с цитированием
Пользователь сказал cпасибо:
Дмитрий (08.09.2013)
Старый 08.09.2013, 14:26   #6
Дмитрий
Music Group
 
Аватар для Дмитрий
 

Регистрация: 12.12.2008
Адрес: Москва прошлого тысячелетия.
Сообщений: 101,556
Сказал(а) спасибо: 23,092
Поблагодарили 101,769 раз(а) в 40,899 сообщениях
Дмитрий репутация неоспоримаДмитрий репутация неоспоримаДмитрий репутация неоспоримаДмитрий репутация неоспоримаДмитрий репутация неоспоримаДмитрий репутация неоспоримаДмитрий репутация неоспоримаДмитрий репутация неоспоримаДмитрий репутация неоспоримаДмитрий репутация неоспоримаДмитрий репутация неоспорима
Отправить сообщение для Дмитрий с помощью Skype™
По умолчанию

Серёга_81, да и расширения для файлов надо обязательно открыть (уберать галочку с "Скрывать расширения для зарегистрированных типов файлов"), потому как не у всех после установки винды открыто.
__________________










Ccылка на тему: Как скачивать с Яндекс диска!

Чтобы быстро скачать чужой опубликованный файл, сохраните его на свой Диск. На вашем Диске файл окажется мгновенно, а свои файлы вы всегда можете скачать без ограничений. Для этого нужно пройти регистрацию на https://mail.yandex.ru/

Уж лучше голодать, чем что попало есть... И лучше одному, чем вместе с кем попало.

Не работают ссылки, не надо флудить в теме. Сообщите ЗДЕСЬ!




Форум не против размещения раздач на других ресурсах. Скачал и не оставил комментарий - понизил релизёру мотивацию делиться с окружающими!

Команда Все Тут желает Вам приятного прослушивания!



Дмитрий вне форума   Ответить с цитированием
Пользователь сказал cпасибо:
Серёга_81 (08.09.2013)
Старый 08.09.2013, 14:39   #7
Серёга_81
Команда
 

Регистрация: 06.09.2013
Адрес: г.Москва
Сообщений: 333
Сказал(а) спасибо: 421
Поблагодарили 833 раз(а) в 147 сообщениях
Серёга_81 репутация неоспоримаСерёга_81 репутация неоспоримаСерёга_81 репутация неоспоримаСерёга_81 репутация неоспоримаСерёга_81 репутация неоспоримаСерёга_81 репутация неоспоримаСерёга_81 репутация неоспоримаСерёга_81 репутация неоспоримаСерёга_81 репутация неоспоримаСерёга_81 репутация неоспоримаСерёга_81 репутация неоспорима
По умолчанию

Дмитрий,я всегда первым делом эту галку убираю с самого начала после установки Винды А потом программы устанавливаю и всё такое...
Серёга_81 вне форума   Ответить с цитированием
Ответ

Закладки

Опции темы
Опции просмотра

Ваши права в разделе
Вы не можете создавать новые темы
Вы не можете отвечать в темах
Вы не можете прикреплять вложения
Вы не можете редактировать свои сообщения

BB коды Вкл.
Смайлы Вкл.
[IMG] код Вкл.
HTML код Выкл.

Быстрый переход


Часовой пояс GMT, время: 07:25.


Powered by vBulletin® Version 3.8.2
Copyright ©2000 - 2017, Jelsoft Enterprises Ltd. Перевод: zCarot
Rambler's Top100 Республика Татарстан - Каталог сайтов