Все Тут Online

   
Меню сайта:
Главная
Форум
Чат
- Online приложения:
- Игры
- Выбор стиля:
- FAQ
- Для начинающих

Вернуться   Все Тут Online > МАГНИТИЗДАТ (Оцифровки Кассет и Бобин) (lossless) > В гостях у Бориса 63 (Оцифровки с бобин и с кассет) > Поп Музыка (Lossless)

загрузка...
Ответ
 
Опции темы Опции просмотра
Старый 21.03.2016, 06:21   #1
Борис 63
Супермодератор. Смотрящий за форумом. Модератор разделов оцифровок.
 
Аватар для Борис 63
 

Регистрация: 01.02.2010
Адрес: СССР Москва
Сообщений: 12,212
Сказал(а) спасибо: 6,228
Поблагодарили 37,914 раз(а) в 6,067 сообщениях
Борис 63 репутация неоспоримаБорис 63 репутация неоспоримаБорис 63 репутация неоспоримаБорис 63 репутация неоспоримаБорис 63 репутация неоспоримаБорис 63 репутация неоспоримаБорис 63 репутация неоспоримаБорис 63 репутация неоспоримаБорис 63 репутация неоспоримаБорис 63 репутация неоспоримаБорис 63 репутация неоспорима
По умолчанию (24/96) Ирина Белова и гр. Казанова - 1993 год (lossless)

загрузка...




Оцифровка с катушки

Катушки куплены специально для нашего форума Александром(Вит70)
Получил их на почте и привез ко мне Илья(redcaesar )

Не забываем Благодарить ребят!!!


Треклист:

01 Ирина Белова - Запоздалые цветы
02 Ирина Белова - Не звони мне
03 Ирина Белова - Я - твоя ошибка
04 Ирина Белова - Совсем одна
05 Ирина Белова - Не придёт
06 Ирина Белова - Казанова
07 Ирина Белова - Мафиози

08 Леонид Агранович - Дела

09 Денди-92 - Ночной экспресс
10 Денди-92 - Знакомый сон
11 Денди-92 - Девять дней


ссылка FLAC+CUE:

Ирина Белова и гр. Казанова.cue

Скрытый текст (вы должны зарегистрироваться или войти под своим логином):
У вас нет прав чтобы видеть скрытый текст, содержащейся здесь.
__________________
Ccылка на тему: Как скачивать с Яндекс диска!

Чтобы быстро скачать чужой опубликованный файл, сохраните его на свой Диск. На вашем Диске файл окажется мгновенно, а свои файлы вы всегда можете скачать без ограничений.
Борис 63 вне форума   Ответить с цитированием
12 пользователя(ей) сказали cпасибо:
19Валерий55 (18.07.2016), Вит70 (21.03.2016), genmerkcs (25.08.2017), gggr (21.03.2016), kopilovoleg (21.03.2016), MC Echtch (21.03.2016), mlkn658776jvg (11.08.2017), Саша (beloborod) (21.03.2016), OwnSoft (11.08.2017), Yury_T (01.04.2016), zitrus (21.03.2016), Юрий718 (11.08.2017)
Старый 21.03.2016, 06:57   #2
Дмитрий
Music Group
 
Аватар для Дмитрий
 

Регистрация: 12.12.2008
Адрес: Москва прошлого тысячелетия.
Сообщений: 101,507
Сказал(а) спасибо: 23,087
Поблагодарили 101,655 раз(а) в 40,866 сообщениях
Дмитрий репутация неоспоримаДмитрий репутация неоспоримаДмитрий репутация неоспоримаДмитрий репутация неоспоримаДмитрий репутация неоспоримаДмитрий репутация неоспоримаДмитрий репутация неоспоримаДмитрий репутация неоспоримаДмитрий репутация неоспоримаДмитрий репутация неоспоримаДмитрий репутация неоспорима
Отправить сообщение для Дмитрий с помощью Skype™
По умолчанию

Ирина Белова и гр. Казанова.cue

Код:
REM GENRE "Поп"
REM DATE 1993
REM COMMENT "Оцифровка - Борис 63"
TITLE "Магнитоальбом"
PERFORMER "Ирина Белова"
FILE "Белова93.flac" WAVE
  TRACK 01 AUDIO
TITLE "Запоздалые цветы"
PERFORMER "Ирина Белова"
    INDEX 01 00:02:17
  TRACK 02 AUDIO
TITLE "Не звони мне"
PERFORMER "Ирина Белова"
    INDEX 01 03:31:31
  TRACK 03 AUDIO
TITLE "Я - твоя ошибка"
PERFORMER "Ирина Белова"
    INDEX 01 07:19:47
  TRACK 04 AUDIO
TITLE "Совсем одна"
PERFORMER "Ирина Белова"
    INDEX 01 10:42:00
  TRACK 05 AUDIO
TITLE "Не придёт"
PERFORMER "Ирина Белова"
    INDEX 01 16:27:05
  TRACK 06 AUDIO
TITLE "Казанова"
PERFORMER "Ирина Белова"
    INDEX 01 21:14:37
  TRACK 07 AUDIO
TITLE "Мафиози"
PERFORMER "Ирина Белова"
    INDEX 01 25:53:56
  TRACK 08 AUDIO
TITLE "Дела"
PERFORMER "Леонид Агранович"
    INDEX 01 29:02:64
  TRACK 09 AUDIO
TITLE "Ночной экспресс"
PERFORMER "Денди-92"
    INDEX 01 32:13:40
  TRACK 10 AUDIO
TITLE "Знакомый сон"
PERFORMER "Денди-92"
    INDEX 01 37:05:33
  TRACK 11 AUDIO
TITLE "Девять дней"
PERFORMER "Денди-92"
    INDEX 01 41:42:03
__________________










Ccылка на тему: Как скачивать с Яндекс диска!

Чтобы быстро скачать чужой опубликованный файл, сохраните его на свой Диск. На вашем Диске файл окажется мгновенно, а свои файлы вы всегда можете скачать без ограничений. Для этого нужно пройти регистрацию на https://mail.yandex.ru/

Уж лучше голодать, чем что попало есть... И лучше одному, чем вместе с кем попало.

Не работают ссылки, не надо флудить в теме. Сообщите ЗДЕСЬ!




Форум не против размещения раздач на других ресурсах. Скачал и не оставил комментарий - понизил релизёру мотивацию делиться с окружающими!

Команда Все Тут желает Вам приятного прослушивания!



Дмитрий вне форума   Ответить с цитированием
5 пользователя(ей) сказали cпасибо:
Вит70 (21.03.2016), Борис 63 (21.03.2016), gggr (21.03.2016), lev777 (23.11.2016), Саша (beloborod) (21.03.2016)
Старый 21.03.2016, 06:58   #3
Вит70
Команда
 

Регистрация: 09.06.2011
Сообщений: 1,258
Сказал(а) спасибо: 2,896
Поблагодарили 2,068 раз(а) в 767 сообщениях
Вит70 репутация неоспоримаВит70 репутация неоспоримаВит70 репутация неоспоримаВит70 репутация неоспоримаВит70 репутация неоспоримаВит70 репутация неоспоримаВит70 репутация неоспоримаВит70 репутация неоспоримаВит70 репутация неоспоримаВит70 репутация неоспоримаВит70 репутация неоспорима
По умолчанию

Борис 63, большое спасибо!!!

Ирина Белова и гр. КАЗАНОВА - 1993

01 Запоздалые цветы
02 Не звони мне
03 Я-твоя ошибка
04 Совсем одна
05 Не придет
06 Казанова
07 Мафиози
08 Леонид Агранович - Дели
09 Денди - Ночной экспресс
10 Денди - Знакомый сон
11 Денди - Девять дней
Вит70 вне форума   Ответить с цитированием
3 пользователя(ей) сказали cпасибо:
Дмитрий (21.03.2016), Борис 63 (21.03.2016), Саша (beloborod) (21.03.2016)
Старый 21.03.2016, 12:03   #4
gggr
Новичок
 

Регистрация: 20.09.2010
Сообщений: 24
Сказал(а) спасибо: 122
Поблагодарили 35 раз(а) в 9 сообщениях
gggr - весьма и весьма положительная личностьgggr - весьма и весьма положительная личность
По умолчанию

Приятно поёт и музыка хороша. Большое спасибо всем причастным к релизу!
gggr вне форума   Ответить с цитированием
2 пользователя(ей) сказали cпасибо:
Борис 63 (21.03.2016), Саша (beloborod) (21.03.2016)
Старый 11.08.2017, 04:58   #5
OwnSoft
Новичок
 

Регистрация: 11.08.2017
Сообщений: 2
Сказал(а) спасибо: 27
Поблагодарили 0 раз(а) в 0 сообщениях
OwnSoft на пути к лучшему
По умолчанию

Большое спасибо за песни в формате lossless
OwnSoft вне форума   Ответить с цитированием
Ответ

Закладки

Опции темы
Опции просмотра

Ваши права в разделе
Вы не можете создавать новые темы
Вы не можете отвечать в темах
Вы не можете прикреплять вложения
Вы не можете редактировать свои сообщения

BB коды Вкл.
Смайлы Вкл.
[IMG] код Вкл.
HTML код Выкл.

Быстрый переход


Часовой пояс GMT, время: 11:35.


Powered by vBulletin® Version 3.8.2
Copyright ©2000 - 2017, Jelsoft Enterprises Ltd. Перевод: zCarot
Rambler's Top100 Республика Татарстан - Каталог сайтов