Все Тут Online

   
Меню сайта:
Главная
Форум
Чат
- Online приложения:
- Игры
- Выбор стиля:
- FAQ
- Для начинающих

Вернуться   Все Тут Online > МАГНИТИЗДАТ (Оцифровки Кассет и Бобин) (lossless) > В гостях у Бориса 63 (Оцифровки с бобин и с кассет) > Поп Музыка (Lossless)

загрузка...
Ответ
 
Опции темы Опции просмотра
Старый 18.05.2017, 16:54   #1
Борис 63
Супермодератор. Смотрящий за форумом. Модератор разделов оцифровок.
 
Аватар для Борис 63
 

Регистрация: 01.02.2010
Адрес: СССР Москва
Сообщений: 11,401
Сказал(а) спасибо: 5,760
Поблагодарили 34,525 раз(а) в 5,557 сообщениях
Борис 63 репутация неоспоримаБорис 63 репутация неоспоримаБорис 63 репутация неоспоримаБорис 63 репутация неоспоримаБорис 63 репутация неоспоримаБорис 63 репутация неоспоримаБорис 63 репутация неоспоримаБорис 63 репутация неоспоримаБорис 63 репутация неоспоримаБорис 63 репутация неоспоримаБорис 63 репутация неоспорима
По умолчанию (24/96) гр. ЭНВИР - 90 лет Новосибирску (1988); По Чаусу (1990) (lossless)

загрузка...



Оцифровка с катушки Юрия

Подающий аппарат - на фото

Треклист:

01 Энвир - Милый город (Светит Солнце)
02 Энвир - Бежим, бежим, торопимся
03 Энвир - Письмо Рейгану (куплеты)
04 Энвир - 90 лет Новосибирску
05 Энвир - Метро
06 Энвир - Хочу с тобой потанцевать
07 Энвир - В открытый космос
08 Энвир - Если ранним утром
09 Андрей Мисин - Фокстрот
10 гр.Первоуральск - Помни
11 гр.Первоуральск - Лучик
12 гр.Первоуральск - Ждал деда Мороза

13 Энвир - Я СПИДом не болею
14 Энвир - Жди меня сегодня
15 Энвир - Обское море
16 Энвир - На эскалаторе
17 Энвир - Такое лето
18 Энвир - По Чаусу
19 Энвир - Инструментал
20 Энвир - Не бродить, не мять в кустах багряных...
21 Энвир - 90 лет Новосибирску (Remix)


Скрытый текст (вы должны зарегистрироваться или войти под своим логином):
У вас нет прав чтобы видеть скрытый текст, содержащейся здесь.
__________________
Ccылка на тему: Как скачивать с Яндекс диска!

Чтобы быстро скачать чужой опубликованный файл, сохраните его на свой Диск. На вашем Диске файл окажется мгновенно, а свои файлы вы всегда можете скачать без ограничений.

Последний раз редактировалось Борис 63; 18.05.2017 в 18:28.
Борис 63 вне форума   Ответить с цитированием
11 пользователя(ей) сказали cпасибо:
ДенисПоПов27 (18.05.2017), Владимир 1733 (19.05.2017), Вит70 (18.05.2017), Дмитрий (18.05.2017), cthutq_1956 (18.05.2017), Don_G (19.05.2017), ikatsuro (20.05.2017), Саша (beloborod) (19.05.2017), suede69 (19.05.2017), Yury_T (19.05.2017), Юрий718 (19.05.2017)
Старый 18.05.2017, 18:28   #2
Борис 63
Супермодератор. Смотрящий за форумом. Модератор разделов оцифровок.
 
Аватар для Борис 63
 

Регистрация: 01.02.2010
Адрес: СССР Москва
Сообщений: 11,401
Сказал(а) спасибо: 5,760
Поблагодарили 34,525 раз(а) в 5,557 сообщениях
Борис 63 репутация неоспоримаБорис 63 репутация неоспоримаБорис 63 репутация неоспоримаБорис 63 репутация неоспоримаБорис 63 репутация неоспоримаБорис 63 репутация неоспоримаБорис 63 репутация неоспоримаБорис 63 репутация неоспоримаБорис 63 репутация неоспоримаБорис 63 репутация неоспоримаБорис 63 репутация неоспорима
По умолчанию

Второй альбом выставил
__________________
Ccылка на тему: Как скачивать с Яндекс диска!

Чтобы быстро скачать чужой опубликованный файл, сохраните его на свой Диск. На вашем Диске файл окажется мгновенно, а свои файлы вы всегда можете скачать без ограничений.
Борис 63 вне форума   Ответить с цитированием
Старый 18.05.2017, 21:03   #3
ДенисПоПов27
VIP
 

Регистрация: 29.03.2011
Сообщений: 1,701
Сказал(а) спасибо: 2,025
Поблагодарили 718 раз(а) в 430 сообщениях
ДенисПоПов27 репутация неоспоримаДенисПоПов27 репутация неоспоримаДенисПоПов27 репутация неоспоримаДенисПоПов27 репутация неоспоримаДенисПоПов27 репутация неоспоримаДенисПоПов27 репутация неоспоримаДенисПоПов27 репутация неоспоримаДенисПоПов27 репутация неоспоримаДенисПоПов27 репутация неоспоримаДенисПоПов27 репутация неоспоримаДенисПоПов27 репутация неоспорима
По умолчанию

Ух катушки какие!!!!!
ДенисПоПов27 на форуме   Ответить с цитированием
Пользователь сказал cпасибо:
Борис 63 (18.05.2017)
Старый 18.05.2017, 21:38   #4
Дмитрий
Music Group
 
Аватар для Дмитрий
 

Регистрация: 12.12.2008
Адрес: Москва прошлого тысячелетия.
Сообщений: 90,740
Сказал(а) спасибо: 21,137
Поблагодарили 90,573 раз(а) в 36,553 сообщениях
Дмитрий репутация неоспоримаДмитрий репутация неоспоримаДмитрий репутация неоспоримаДмитрий репутация неоспоримаДмитрий репутация неоспоримаДмитрий репутация неоспоримаДмитрий репутация неоспоримаДмитрий репутация неоспоримаДмитрий репутация неоспоримаДмитрий репутация неоспоримаДмитрий репутация неоспорима
Отправить сообщение для Дмитрий с помощью Skype™
По умолчанию

Энвир.cue

Код:
REM GENRE "Поп"
REM COMMENT "Оцифровка - Борис 63"
TITLE "Магнитоальбом"
PERFORMER "Энвир"
FILE "Энвир 1.flac" WAVE
  TRACK 01 AUDIO
TITLE "Милый город (Светит Солнце)"
PERFORMER "Энвир"
    INDEX 01 00:05:21
  TRACK 02 AUDIO
TITLE "Бежим, бежим, торопимся"
PERFORMER "Энвир"
    INDEX 01 05:50:56
  TRACK 03 AUDIO
TITLE "Письмо Рейгану (куплеты)"
PERFORMER "Энвир"
    INDEX 01 09:19:23
  TRACK 04 AUDIO
TITLE "90 лет Новосибирску"
PERFORMER "Энвир"
    INDEX 01 13:50:28
  TRACK 05 AUDIO
TITLE "Метро"
PERFORMER "Энвир"
    INDEX 01 18:18:58
  TRACK 06 AUDIO
TITLE "Хочу с тобой потанцевать"
PERFORMER "Энвир"
    INDEX 01 20:04:74
  TRACK 07 AUDIO
TITLE "В открытый космос"
PERFORMER "Энвир"
    INDEX 01 26:51:20
  TRACK 08 AUDIO
TITLE "Если ранним утром"
PERFORMER "Энвир"
    INDEX 01 31:56:32
  TRACK 09 AUDIO
TITLE "Фокстрот"
PERFORMER "Андрей Мисин"
    INDEX 01 35:57:33
  TRACK 10 AUDIO
TITLE "Помни"
PERFORMER "гр.Первоуральск"
    INDEX 01 39:55:31
  TRACK 11 AUDIO
TITLE "Лучик"
PERFORMER "гр.Первоуральск"
    INDEX 01 42:21:66
  TRACK 12 AUDIO
TITLE "Ждал деда Мороза"
PERFORMER "гр.Первоуральск"
    INDEX 01 45:21:24
FILE "Энвир 2.flac" WAVE
  TRACK 13 AUDIO
TITLE "Я СПИДом не болею"
PERFORMER "Энвир"
    INDEX 01 00:12:04
  TRACK 14 AUDIO
TITLE "Жди меня сегодня"
PERFORMER "Энвир"
    INDEX 01 04:28:52
  TRACK 15 AUDIO
TITLE "Обское море"
PERFORMER "Энвир"
    INDEX 01 09:49:38
  TRACK 16 AUDIO
TITLE "На эскалаторе"
PERFORMER "Энвир"
    INDEX 01 14:11:74
  TRACK 17 AUDIO
TITLE "Такое лето"
PERFORMER "Энвир"
    INDEX 01 20:54:44
  TRACK 18 AUDIO
TITLE "По Чаусу"
PERFORMER "Энвир"
    INDEX 01 25:42:55
  TRACK 19 AUDIO
TITLE "Инструментал"
PERFORMER "Энвир"
    INDEX 01 29:32:59
  TRACK 20 AUDIO
TITLE "Не бродить, не мять в кустах багряных..."
PERFORMER "Энвир"
    INDEX 01 35:52:16
  TRACK 21 AUDIO
TITLE "Магнитоальбом"
PERFORMER "Энвир"
    INDEX 01 39:58:66
 
__________________









Ccылка на тему: Как скачивать с Яндекс диска!

Чтобы быстро скачать чужой опубликованный файл, сохраните его на свой Диск. На вашем Диске файл окажется мгновенно, а свои файлы вы всегда можете скачать без ограничений. Для этого нужно пройти регистрацию на https://www.yandex.ru/

Если вам нечего делать, то не надо делать это у нас на форуме!!!
Водитель в России должен уметь обруливать ямы, уворачиваться от обруливающих ямы, от лихачей, пешеходов и долбо...бов...


Не работают ссылки, не надо флудить в теме. Сообщите ЗДЕСЬ!




Форум не против размещения раздач на других ресурсах. Скачал и не оставил комментарий - понизил релизёру мотивацию делиться с окружающими!

Команда Все Тут желает Вам приятного прослушивания!


Дмитрий вне форума   Ответить с цитированием
3 пользователя(ей) сказали cпасибо:
Вит70 (19.05.2017), Борис 63 (18.05.2017), Саша (beloborod) (19.05.2017)
Старый 22.05.2017, 08:29   #5
Yurgen
VIP
 

Регистрация: 10.01.2013
Сообщений: 229
Сказал(а) спасибо: 144
Поблагодарили 221 раз(а) в 99 сообщениях
Yurgen за этого человека можно гордитсяYurgen за этого человека можно гордитсяYurgen за этого человека можно гордитсяYurgen за этого человека можно гордитсяYurgen за этого человека можно гордитсяYurgen за этого человека можно гордитсяYurgen за этого человека можно гордитсяYurgen за этого человека можно гордитсяYurgen за этого человека можно гордится
По умолчанию

Я не слушал еще, какой это жанр? Точно попса, не легкий рок?)

Последний раз редактировалось Yurgen; 22.05.2017 в 08:49.
Yurgen вне форума   Ответить с цитированием
Старый 22.05.2017, 08:56   #6
Борис 63
Супермодератор. Смотрящий за форумом. Модератор разделов оцифровок.
 
Аватар для Борис 63
 

Регистрация: 01.02.2010
Адрес: СССР Москва
Сообщений: 11,401
Сказал(а) спасибо: 5,760
Поблагодарили 34,525 раз(а) в 5,557 сообщениях
Борис 63 репутация неоспоримаБорис 63 репутация неоспоримаБорис 63 репутация неоспоримаБорис 63 репутация неоспоримаБорис 63 репутация неоспоримаБорис 63 репутация неоспоримаБорис 63 репутация неоспоримаБорис 63 репутация неоспоримаБорис 63 репутация неоспоримаБорис 63 репутация неоспоримаБорис 63 репутация неоспорима
По умолчанию

Yurgen, Шансонная попса.
__________________
Ccылка на тему: Как скачивать с Яндекс диска!

Чтобы быстро скачать чужой опубликованный файл, сохраните его на свой Диск. На вашем Диске файл окажется мгновенно, а свои файлы вы всегда можете скачать без ограничений.
Борис 63 вне форума   Ответить с цитированием
Старый 22.05.2017, 08:59   #7
Yurgen
VIP
 

Регистрация: 10.01.2013
Сообщений: 229
Сказал(а) спасибо: 144
Поблагодарили 221 раз(а) в 99 сообщениях
Yurgen за этого человека можно гордитсяYurgen за этого человека можно гордитсяYurgen за этого человека можно гордитсяYurgen за этого человека можно гордитсяYurgen за этого человека можно гордитсяYurgen за этого человека можно гордитсяYurgen за этого человека можно гордитсяYurgen за этого человека можно гордитсяYurgen за этого человека можно гордится
По умолчанию

Там таких групп полно, в данной коллекции)
Именно поп-шансон. Есть и поп-рок))
Yurgen вне форума   Ответить с цитированием
Пользователь сказал cпасибо:
Борис 63 (22.05.2017)
Ответ

Закладки

Опции темы
Опции просмотра

Ваши права в разделе
Вы не можете создавать новые темы
Вы не можете отвечать в темах
Вы не можете прикреплять вложения
Вы не можете редактировать свои сообщения

BB коды Вкл.
Смайлы Вкл.
[IMG] код Вкл.
HTML код Выкл.

Быстрый переход


Часовой пояс GMT, время: 10:42.


Powered by vBulletin® Version 3.8.2
Copyright ©2000 - 2017, Jelsoft Enterprises Ltd. Перевод: zCarot
Rambler's Top100 Республика Татарстан - Каталог сайтов