Все Тут Online
Все Тут Online
Новые сообщения
Все сообщения за последних 24 часа
Расширенный Поиск

   
Меню сайта:
Главная
Форум
Чат
- Online приложения:
- Игры
- Выбор стиля:
- FAQ
- Для начинающих

Вернуться   Все Тут Online > МАГНИТИЗДАТ (Оцифровки Кассет и Бобин) (lossless) > В гостях у Бориса 63 (Оцифровки с бобин и с кассет) > Рок Музыка (Lossless)

Старый 10.10.2018, 15:39   #1
Борис 63
Супермодератор. Смотрящий за форумом. Модератор разделов оцифровок.
 
Аватар для Борис 63
 

Регистрация: 01.02.2010
Адрес: СССР Москва
Сообщений: 13,601
Сказал(а) спасибо: 7,572
Поблагодарили 44,424 раз(а) в 7,162 сообщениях
Борис 63 репутация неоспоримаБорис 63 репутация неоспоримаБорис 63 репутация неоспоримаБорис 63 репутация неоспоримаБорис 63 репутация неоспоримаБорис 63 репутация неоспоримаБорис 63 репутация неоспоримаБорис 63 репутация неоспоримаБорис 63 репутация неоспоримаБорис 63 репутация неоспоримаБорис 63 репутация неоспорима
По умолчанию (24/96) гр. ДЕПЕША - Русская любовь (фрагмент) - 1990 год + гр. АКВАРИУМ 1988 год - Концертник (lossless)










Оцифровка с катушки нашего форумчанина Вадима -nfisher-

Спасибо ему за предоставленный материал.

Подающий аппарат и катушка - на фото.


1 ст.

Скрытый текст (вы должны зарегистрироваться или войти под своим логином):
У вас нет прав чтобы видеть скрытый текст, содержащейся здесь.


2 ст.

Скрытый текст (вы должны зарегистрироваться или войти под своим логином):
У вас нет прав чтобы видеть скрытый текст, содержащейся здесь.
__________________
Ccылка на тему: Как скачивать с Яндекс диска!

Чтобы быстро скачать чужой опубликованный файл, сохраните его на свой Диск. На вашем Диске файл окажется мгновенно, а свои файлы вы всегда можете скачать без ограничений.
Борис 63 вне форума   Ответить с цитированием
8 пользователя(ей) сказали cпасибо:
Дмитрий (10.10.2018), Don_G (11.10.2018), IIecokB (10.10.2018), Саша (beloborod) (11.10.2018), nfisher (10.10.2018), фёдор1969 (11.10.2018), serger.ger (10.10.2018), Yury_T (15.10.2018)
Старый 10.10.2018, 15:44   #2
nfisher
Местный
 
Аватар для nfisher
 

Регистрация: 05.12.2014
Сообщений: 212
Сказал(а) спасибо: 666
Поблагодарили 285 раз(а) в 94 сообщениях
nfisher за этого человека можно гордитсяnfisher за этого человека можно гордитсяnfisher за этого человека можно гордитсяnfisher за этого человека можно гордитсяnfisher за этого человека можно гордитсяnfisher за этого человека можно гордитсяnfisher за этого человека можно гордитсяnfisher за этого человека можно гордитсяnfisher за этого человека можно гордитсяnfisher за этого человека можно гордится
По умолчанию

Спасибо, Борис! Здоровья тебе! Начало положено. Сейчас послушаю .... спустя 20 с лишним лет!
Спасибо Игорю (капитан Воронин) за посредничество и потраченное время - получил катушки на почте и доставил Борису.
На первой стороне записи групп из Владивостока. Альбом Депешы не полный - только демо-версия (к сожалению). Группы писались в студии Декада Дальневосточного высшего инженерно-мореходного училища (ныне Морской государственный университет им. Г.И.Невельского). Это 2-я или 3-я копия с оригинала. История группы Депеша: https://vk.com/wall-41620590_3952
Святой Павел и Листья травы - этих записей нет на ленте.
Запись Аквариума концертная, качество посредственное, но в то время, помню, качественные записи Аквариума были редкостью, поэтому записывали то, что есть

Последний раз редактировалось nfisher; 13.10.2018 в 03:44.
nfisher вне форума   Ответить с цитированием
4 пользователя(ей) сказали cпасибо:
Дмитрий (10.10.2018), Борис 63 (10.10.2018), Don_G (11.10.2018), Саша (beloborod) (11.10.2018)
Старый 12.10.2018, 10:07   #3
nfisher
Местный
 
Аватар для nfisher
 

Регистрация: 05.12.2014
Сообщений: 212
Сказал(а) спасибо: 666
Поблагодарили 285 раз(а) в 94 сообщениях
nfisher за этого человека можно гордитсяnfisher за этого человека можно гордитсяnfisher за этого человека можно гордитсяnfisher за этого человека можно гордитсяnfisher за этого человека можно гордитсяnfisher за этого человека можно гордитсяnfisher за этого человека можно гордитсяnfisher за этого человека можно гордитсяnfisher за этого человека можно гордитсяnfisher за этого человека можно гордится
По умолчанию

Куй 1 сторона: https://my-files.ru/9v7db9

REM GENRE "New Wave"
REM COMMENT "Оцифровка - Борис 63"
TITLE "Русская любовь"
PERFORMER "Депеша"
FILE "1 ст.flac" WAVE
TRACK 01 AUDIO
TITLE "Пролог"
PERFORMER "Депеша"
INDEX 01 00:00:00
TRACK 02 AUDIO
TITLE "Русские девочки"
PERFORMER "Депеша"
INDEX 01 00:41:46
TRACK 03 AUDIO
TITLE "Люби меня"
PERFORMER "Депеша"
INDEX 01 04:07:91
TRACK 04 AUDIO
TITLE "Идеал"
PERFORMER "Депеша"
INDEX 01 08:19:95
TRACK 05 AUDIO
TITLE "Боль-мажор"
PERFORMER "Депеша"
INDEX 01 12:52:70
TRACK 06 AUDIO
TITLE "Пролог-эпилог"
PERFORMER "Депеша"
INDEX 01 16:52:09
TRACK 07 AUDIO
TITLE "Тайна луны"
PERFORMER "Аркана"
INDEX 01 18:31:33

Куй 2-я сторона: https://my-files.ru/izojst

REM GENRE "Rock"
REM COMMENT "Оцифровка - Борис 63"
TITLE "Концерт"
PERFORMER "Аквариум"
FILE "2 ст.flac" WAVE
TRACK 01 AUDIO
TITLE "Козлы"
PERFORMER "Аквариум"
INDEX 01 00:00:00
TRACK 02 AUDIO
TITLE "Дикий мёд"
PERFORMER "Аквариум"
INDEX 01 05:12:60
TRACK 03 AUDIO
TITLE "Она может двигать собой"
PERFORMER "Аквариум"
INDEX 01 08:34:02
TRACK 04 AUDIO
TITLE "Не трать время"
PERFORMER "Аквариум"
INDEX 01 14:11:62
TRACK 05 AUDIO
TITLE "Змея"
PERFORMER "Аквариум"
INDEX 01 19:32:05

Последний раз редактировалось nfisher; 13.10.2018 в 10:30.
nfisher вне форума   Ответить с цитированием
3 пользователя(ей) сказали cпасибо:
Дмитрий (14.10.2018), Борис 63 (12.10.2018), Саша (beloborod) (12.10.2018)
Старый 12.10.2018, 16:15   #4
Дмитрий
Music Group
 
Аватар для Дмитрий
 

Регистрация: 12.12.2008
Адрес: Москва прошлого тысячелетия.
Сообщений: 109,743
Сказал(а) спасибо: 26,803
Поблагодарили 118,916 раз(а) в 45,590 сообщениях
Дмитрий репутация неоспоримаДмитрий репутация неоспоримаДмитрий репутация неоспоримаДмитрий репутация неоспоримаДмитрий репутация неоспоримаДмитрий репутация неоспоримаДмитрий репутация неоспоримаДмитрий репутация неоспоримаДмитрий репутация неоспоримаДмитрий репутация неоспоримаДмитрий репутация неоспорима
Отправить сообщение для Дмитрий с помощью Skype™
По умолчанию

__________________












Ccылка на тему: Как скачивать с Яндекс диска!

Чтобы быстро скачать чужой опубликованный файл, сохраните его на свой Диск. На вашем Диске файл окажется мгновенно, а свои файлы вы всегда можете скачать без ограничений. Для этого нужно пройти регистрацию на https://mail.yandex.ru/

Уж лучше голодать, чем что попало есть... И лучше одному, чем вместе с кем попало.

Не работают ссылки, не надо флудить в теме. Сообщите ЗДЕСЬ!




Скачал и не оставил комментарий - понизил релизёру мотивацию делиться с окружающими!

Команда Все Тут желает Вам приятного прослушивания!



Дмитрий вне форума   Ответить с цитированием
Ответ

Закладки

Опции темы
Опции просмотра

Ваши права в разделе
Вы не можете создавать новые темы
Вы не можете отвечать в темах
Вы не можете прикреплять вложения
Вы не можете редактировать свои сообщения

BB коды Вкл.
Смайлы Вкл.
[IMG] код Вкл.
HTML код Выкл.

Быстрый переход


Часовой пояс GMT, время: 01:34.


Powered by vBulletin® Version 3.8.2
Copyright ©2000 - 2018, Jelsoft Enterprises Ltd. Перевод: zCarot
Rambler's Top100 Республика Татарстан - Каталог сайтов