Все Тут Online
Все Тут Online
Новые сообщения
Все сообщения за последних 24 часа
Расширенный Поиск

   
Меню сайта:
Главная
Форум
Чат
- Online приложения:
- Игры
- Выбор стиля:
- FAQ
- Для начинающих

Вернуться   Все Тут Online > МАГНИТИЗДАТ (Оцифровки Кассет и Бобин) (lossless) > В гостях у Бориса 63 (Оцифровки с бобин и с кассет) > Рок Музыка (Lossless)

Старый 10.10.2018, 17:03   #1
Борис 63
Супермодератор. Смотрящий за форумом. Модератор разделов оцифровок.
 
Аватар для Борис 63
 

Регистрация: 01.02.2010
Адрес: СССР Москва
Сообщений: 13,596
Сказал(а) спасибо: 7,567
Поблагодарили 44,368 раз(а) в 7,157 сообщениях
Борис 63 репутация неоспоримаБорис 63 репутация неоспоримаБорис 63 репутация неоспоримаБорис 63 репутация неоспоримаБорис 63 репутация неоспоримаБорис 63 репутация неоспоримаБорис 63 репутация неоспоримаБорис 63 репутация неоспоримаБорис 63 репутация неоспоримаБорис 63 репутация неоспоримаБорис 63 репутация неоспорима
По умолчанию (24/96) Александр Демин -Тактика выжженной земли- 1989 год (lossless)








Оцифровка с катушки нашего форумчанина Вадима -nfisher-

Спасибо ему за предоставленный материал.

Подающий аппарат и катушка - на фото.


1 ст.

Скрытый текст (вы должны зарегистрироваться или войти под своим логином):
У вас нет прав чтобы видеть скрытый текст, содержащейся здесь.


2 ст.

Скрытый текст (вы должны зарегистрироваться или войти под своим логином):
У вас нет прав чтобы видеть скрытый текст, содержащейся здесь.


2 ст. Еще раз оцифровал. Провал ушел - но лента уже пищит.
Максимально возможное с неё вытянул.


Скрытый текст (вы должны зарегистрироваться или войти под своим логином):
У вас нет прав чтобы видеть скрытый текст, содержащейся здесь.
__________________
Ccылка на тему: Как скачивать с Яндекс диска!

Чтобы быстро скачать чужой опубликованный файл, сохраните его на свой Диск. На вашем Диске файл окажется мгновенно, а свои файлы вы всегда можете скачать без ограничений.

Последний раз редактировалось Борис 63; 15.10.2018 в 11:15.
Борис 63 вне форума   Ответить с цитированием
9 пользователя(ей) сказали cпасибо:
Алёша 333 (10.10.2018), Дмитрий (11.10.2018), Касторка (11.10.2018), Саша (beloborod) (11.10.2018), nfisher (11.10.2018), таня50 (13.10.2018), Oleg1972 (11.10.2018), фёдор1969 (12.10.2018), Yury_T (15.10.2018)
Старый 11.10.2018, 01:34   #2
nfisher
Местный
 
Аватар для nfisher
 

Регистрация: 05.12.2014
Сообщений: 212
Сказал(а) спасибо: 666
Поблагодарили 283 раз(а) в 94 сообщениях
nfisher за этого человека можно гордитсяnfisher за этого человека можно гордитсяnfisher за этого человека можно гордитсяnfisher за этого человека можно гордитсяnfisher за этого человека можно гордитсяnfisher за этого человека можно гордитсяnfisher за этого человека можно гордитсяnfisher за этого человека можно гордитсяnfisher за этого человека можно гордитсяnfisher за этого человека можно гордится
По умолчанию

Об авторе (исполнителе):
https://ru.wikipedia.org/wiki/%D0%94...B2%D0%B8%D1%87

http://dvmusic.ru/index/page/188/full/


Последний раз редактировалось nfisher; 11.10.2018 в 01:51. Причина: добавление текста
nfisher вне форума   Ответить с цитированием
4 пользователя(ей) сказали cпасибо:
Дмитрий (11.10.2018), Борис 63 (11.10.2018), Krock60 (13.10.2018), Саша (beloborod) (11.10.2018)
Старый 12.10.2018, 09:15   #3
nfisher
Местный
 
Аватар для nfisher
 

Регистрация: 05.12.2014
Сообщений: 212
Сказал(а) спасибо: 666
Поблагодарили 283 раз(а) в 94 сообщениях
nfisher за этого человека можно гордитсяnfisher за этого человека можно гордитсяnfisher за этого человека можно гордитсяnfisher за этого человека можно гордитсяnfisher за этого человека можно гордитсяnfisher за этого человека можно гордитсяnfisher за этого человека можно гордитсяnfisher за этого человека можно гордитсяnfisher за этого человека можно гордитсяnfisher за этого человека можно гордится
По умолчанию

Куй к 1-й стороне: https://my-files.ru/a0a4i3

REM GENRE "Blues"
REM COMMENT "Оцифровка - Борис 63"
TITLE "Тактика выжженной земли"
PERFORMER "Александр Дёмин"
FILE "1 ст.flac" WAVE
TRACK 01 AUDIO
TITLE "Слишком долго здесь"
PERFORMER "Александр Дёмин"
INDEX 01 00:00:00
TRACK 02 AUDIO
TITLE "Грязные блюзы"
PERFORMER "Александр Дёмин"
INDEX 01 04:16:72
TRACK 03 AUDIO
TITLE "Несколько советов ученику третьего класса"
PERFORMER "Александр Дёмин"
INDEX 01 07:21:70
TRACK 04 AUDIO
TITLE "Вниз по реке"
PERFORMER "Александр Дёмин"
INDEX 01 10:37:59
TRACK 05 AUDIO
TITLE "Пять утра"
PERFORMER "Александр Дёмин"
INDEX 01 14:07:68
TRACK 06 AUDIO
TITLE "Враг общества номер один"
PERFORMER "Александр Дёмин"
INDEX 01 17:58:73
TRACK 07 AUDIO
TITLE "Мне холодно"
PERFORMER "Александр Дёмин"
INDEX 01 21:04:60

Куй ко 2-й стороне: https://my-files.ru/31p5ti

REM GENRE "Blues"
REM COMMENT "Оцифровка - Борис 63"
TITLE "Тактика выжженной земли"
PERFORMER "Александр Дёмин"
FILE "2 ст.flac" WAVE
TRACK 01 AUDIO
TITLE "Мне холодно"
PERFORMER "Александр Дёмин"
INDEX 01 00:00:00
TRACK 02 AUDIO
TITLE "Асфальтовый блюз"
PERFORMER "Александр Дёмин"
INDEX 01 04:23:02
TRACK 03 AUDIO
TITLE "Промой мне глаза"
PERFORMER "Александр Дёмин"
INDEX 01 08:06:58
TRACK 04 AUDIO
TITLE "Знамена чернеют"
PERFORMER "Александр Дёмин"
INDEX 01 10:09:00

Последний раз редактировалось nfisher; 13.10.2018 в 10:37.
nfisher вне форума   Ответить с цитированием
2 пользователя(ей) сказали cпасибо:
Борис 63 (12.10.2018), таня50 (13.10.2018)
Ответ

Закладки

Опции темы
Опции просмотра

Ваши права в разделе
Вы не можете создавать новые темы
Вы не можете отвечать в темах
Вы не можете прикреплять вложения
Вы не можете редактировать свои сообщения

BB коды Вкл.
Смайлы Вкл.
[IMG] код Вкл.
HTML код Выкл.

Быстрый переход


Часовой пояс GMT, время: 00:27.


Powered by vBulletin® Version 3.8.2
Copyright ©2000 - 2018, Jelsoft Enterprises Ltd. Перевод: zCarot
Rambler's Top100 Республика Татарстан - Каталог сайтов