Все Тут Online
Все Тут Online
Новые сообщения
Все сообщения за последних 24 часа
Расширенный Поиск

   
Меню сайта:
Главная
Форум
Чат
- Online приложения:
- Игры
- Выбор стиля:
- FAQ
- Для начинающих

Вернуться   Все Тут Online > ОЦИФРОВКИ ВИНИЛА (Lossless) > Музыка ДРУГИХ ЖАНРОВ [Instrumental; Blues; Jazz; Классическая музыка] (Lossless) > Зарубежная

Старый 02.04.2020, 11:47   #1
Дмитрий
Music Group
 
Аватар для Дмитрий
 

Регистрация: 12.12.2008
Адрес: Москва прошлого тысячелетия.
Сообщений: 140,987
Сказал(а) спасибо: 32,221
Поблагодарили 158,362 раз(а) в 57,827 сообщениях
Дмитрий репутация неоспоримаДмитрий репутация неоспоримаДмитрий репутация неоспоримаДмитрий репутация неоспоримаДмитрий репутация неоспоримаДмитрий репутация неоспоримаДмитрий репутация неоспоримаДмитрий репутация неоспоримаДмитрий репутация неоспоримаДмитрий репутация неоспоримаДмитрий репутация неоспорима
По умолчанию [1/5,64 MHz] Pro-Ject Audiophile Spectrum (Test Audiophile pressing) - 2009, DSD128 (image+.cue)

Скрытый текст (вы должны зарегистрироваться или войти под своим логином):
У вас нет прав чтобы видеть скрытый текст, содержащейся здесь.


Дмитрий вне форума   Ответить с цитированием
2 пользователя(ей) сказали cпасибо:
Виктор53 (03.04.2020), Oleg3171 (03.04.2020)
Старый 03.04.2020, 07:41   #2
Виктор53
Новичок
 

Регистрация: 21.10.2019
Сообщений: 13
Сказал(а) спасибо: 108
Поблагодарили 0 раз(а) в 0 сообщениях
Виктор53 на пути к лучшему
По умолчанию

Спасибо. Исправил 2 ошибки в CUE файле.
Виктор53 вне форума   Ответить с цитированием
Старый 03.04.2020, 13:40   #3
SLR
Пользователь
 
Аватар для SLR
 

Регистрация: 11.07.2018
Сообщений: 39
Сказал(а) спасибо: 316
Поблагодарили 24 раз(а) в 15 сообщениях
SLR скоро придёт к известностиSLR скоро придёт к известности
По умолчанию CUE

REM GENRE "Jazz"
REM DATE "2009"
PERFORMER "Pro-Ject Audio"
TITLE "Audiophile Spectrum"
FILE "Audiophile Spectrum S.1.dsf" WAVE
TRACK 01 AUDIO
TITLE "On Broadway"
PERFORMER "Puschnig / Swallow / Lewis / Alias"
INDEX 01 00:00:00
TRACK 02 AUDIO
TITLE "Besame Mucho"
PERFORMER "Chant Band, The"
INDEX 01 03:39:25
TRACK 03 AUDIO
TITLE "Francanapa"
PERFORMER "Preinfalk/Schmid/Paier/Mathisen"
INDEX 01 09:30:66
TRACK 04 AUDIO
TITLE "Rolmo"
PERFORMER "Melo X"
INDEX 01 12:22:00
TRACK 05 AUDIO
TITLE "Smoke"
PERFORMER "Sabina Hank Trio"
INDEX 01 16:18:10
FILE "Audiophile Spectrum S.2.dsf" WAVE
TRACK 06 AUDIO
TITLE "Golden Monents"
PERFORMER "Vienna Art Orchestra"
INDEX 01 00:00:00
TRACK 07 AUDIO
TITLE "Air Love & Vitamins"
PERFORMER "Johnson Blade"
INDEX 01 03:42:00
TRACK 08 AUDIO
TITLE "In A Sentimental Mood"
PERFORMER "Swallow"
INDEX 01 07:26:04
TRACK 09 AUDIO
TITLE "Call & Response"
PERFORMER "Gansch & Roses"
INDEX 01 11:30:48
TRACK 10 AUDIO
TITLE "Lucky Southern"
PERFORMER "Rudi Linka"
INDEX 01 19:07:24

Последний раз редактировалось SLR; 03.04.2020 в 14:28. Причина: правка
SLR вне форума   Ответить с цитированием
Ответ

Закладки

Опции темы
Опции просмотра

Ваши права в разделе
Вы не можете создавать новые темы
Вы не можете отвечать в темах
Вы не можете прикреплять вложения
Вы не можете редактировать свои сообщения

BB коды Вкл.
Смайлы Вкл.
[IMG] код Вкл.
HTML код Выкл.

Быстрый переход


Часовой пояс GMT, время: 14:54.


Powered by vBulletin® Version 3.8.2
Copyright ©2000 - 2020, Jelsoft Enterprises Ltd. Перевод: zCarot
Rambler's Top100 Республика Татарстан - Каталог сайтов