Все Тут Online
Все Тут Online
Новые сообщения
Все сообщения за последних 24 часа
Расширенный Поиск

   
Меню сайта:
Главная
Форум
Чат
- Online приложения:
- Игры
- Выбор стиля:
- FAQ
- Для начинающих

Вернуться   Все Тут Online > МАГНИТИЗДАТ (Оцифровки Кассет и Бобин) (lossless) > В гостях у Бориса 63 (Оцифровки с бобин и с кассет) > Музыка других жанров [Instrumental; Blues; Jazz; Классическая музыка] (Lossless)

Старый 18.07.2017, 17:33   #1
Борис 63
Супермодератор. Смотрящий за форумом. Модератор разделов оцифровок.
 
Аватар для Борис 63
 

Регистрация: 01.02.2010
Адрес: СССР Москва
Сообщений: 13,005
Сказал(а) спасибо: 6,838
Поблагодарили 41,429 раз(а) в 6,683 сообщениях
Борис 63 репутация неоспоримаБорис 63 репутация неоспоримаБорис 63 репутация неоспоримаБорис 63 репутация неоспоримаБорис 63 репутация неоспоримаБорис 63 репутация неоспоримаБорис 63 репутация неоспоримаБорис 63 репутация неоспоримаБорис 63 репутация неоспоримаБорис 63 репутация неоспоримаБорис 63 репутация неоспорима
По умолчанию (24/96) Fausto Papetti - 20a Raccolta (Sexy Slow With Nadia) (1975) (lossless)



Оцифровка с катушки пользователя -протопоп

Спасибо ему.

Подающий аппарат - на фото.

Треклист:

01 Fausto Papetti - Insensatez (How Insensitive)
02 Fausto Papetti - Happy People
03 Fausto Papetti - Aria
04 Fausto Papetti - Shame Shame Shame
05 Fausto Papetti - Verde
06 Fausto Papetti - You're The First, The Last, My Everything
07 Fausto Papetti - Sad Sweet Dreamer
08 Fausto Papetti - Andorinha
09 Fausto Papetti - Blue Eyed Soul
10 Fausto Papetti - Love Said Goodbye
11 Fausto Papetti - El Bimbo
12 Fausto Papetti - White Lady

13 Fausto Papetti - All By Myself
14 Fausto Papetti - El Tinto


ссылка

Скрытый текст (вы должны войти под своим логином или зарегистрироваться и иметь 3 сообщение(ий)):
У вас нет прав чтобы видеть скрытый текст, содержащейся здесь.
__________________
Ccылка на тему: Как скачивать с Яндекс диска!

Чтобы быстро скачать чужой опубликованный файл, сохраните его на свой Диск. На вашем Диске файл окажется мгновенно, а свои файлы вы всегда можете скачать без ограничений.

Последний раз редактировалось Борис 63; 18.07.2017 в 18:19.
Борис 63 вне форума   Ответить с цитированием
7 пользователя(ей) сказали cпасибо:
васил (05.01.2018), Владимир 1733 (19.07.2017), cthutq_1956 (18.07.2017), Edius (08.09.2017), протопоп (19.07.2017), oblom123 (19.07.2017), victor1953 (20.09.2017)
Старый 19.07.2017, 00:54   #2
Дмитрий
Music Group
 
Аватар для Дмитрий
 

Регистрация: 12.12.2008
Адрес: Москва прошлого тысячелетия.
Сообщений: 123,397
Сказал(а) спасибо: 25,752
Поблагодарили 115,334 раз(а) в 45,868 сообщениях
Дмитрий репутация неоспоримаДмитрий репутация неоспоримаДмитрий репутация неоспоримаДмитрий репутация неоспоримаДмитрий репутация неоспоримаДмитрий репутация неоспоримаДмитрий репутация неоспоримаДмитрий репутация неоспоримаДмитрий репутация неоспоримаДмитрий репутация неоспоримаДмитрий репутация неоспорима
Отправить сообщение для Дмитрий с помощью Skype™
По умолчанию

Fausto Papetti - 20a Raccolta (Sexy Slow With Nadia) (1975).cue

Код:
REM GENRE "Инструментал"
REM DATE 1975
REM COMMENT "Оцифровка - Борис 63"
TITLE "20a Raccolta"
PERFORMER "Fausto Papetti"
FILE "Nadia.flac" WAVE
  TRACK 01 AUDIO
TITLE "Insensatez (How Insensitive)"
PERFORMER "Fausto Papetti"
    INDEX 01 00:01:59
  TRACK 02 AUDIO
TITLE "Happy People"
PERFORMER "Fausto Papetti"
    INDEX 01 02:37:46
  TRACK 03 AUDIO
TITLE "Aria"
PERFORMER "Fausto Papetti"
    INDEX 01 05:47:21
  TRACK 04 AUDIO
TITLE "Shame Shame Shame"
PERFORMER "Fausto Papetti"
    INDEX 01 10:20:16
  TRACK 05 AUDIO
TITLE "Verde"
PERFORMER "Fausto Papetti"
    INDEX 01 13:32:62
  TRACK 06 AUDIO
TITLE "You're The First, The Last, My Everything"
PERFORMER "Fausto Papetti"
    INDEX 01 16:44:23
  TRACK 07 AUDIO
TITLE "Sad Sweet Dreamer"
PERFORMER "Fausto Papetti"
    INDEX 01 19:56:43
  TRACK 08 AUDIO
TITLE "Andorinha"
PERFORMER "Fausto Papetti"
    INDEX 01 23:04:24
  TRACK 09 AUDIO
TITLE "Blue Eyed Soul"
PERFORMER "Fausto Papetti"
    INDEX 01 26:52:02
  TRACK 10 AUDIO
TITLE "Love Said Goodbye"
PERFORMER "Fausto Papetti"
    INDEX 01 30:25:66
  TRACK 11 AUDIO
TITLE "El Bimbo"
PERFORMER "Fausto Papetti"
    INDEX 01 33:33:74
  TRACK 12 AUDIO
TITLE "White Lady"
PERFORMER "Fausto Papetti"
    INDEX 01 35:56:24
  TRACK 13 AUDIO
TITLE "All By Myself"
PERFORMER "Fausto Papetti"
    INDEX 01 39:01:49
  TRACK 14 AUDIO
TITLE "El Tinto"
PERFORMER "Fausto Papetti"
    INDEX 01 42:20:56
__________________












Ccылка на тему: Как скачивать с Яндекс диска!

Чтобы быстро скачать чужой опубликованный файл, сохраните его на свой Диск. На вашем Диске файл окажется мгновенно, а свои файлы вы всегда можете скачать без ограничений. Для этого нужно пройти регистрацию на https://mail.yandex.ru/

Уж лучше голодать, чем что попало есть... И лучше одному, чем вместе с кем попало.

Не работают ссылки, не надо флудить в теме. Сообщите ЗДЕСЬ!




Скачал и не оставил комментарий - понизил релизёру мотивацию делиться с окружающими!

Команда Все Тут желает Вам приятного прослушивания!



Дмитрий вне форума   Ответить с цитированием
Пользователь сказал cпасибо:
cthutq_1956 (19.07.2017)
Старый 19.07.2017, 02:08   #3
cthutq_1956
VIP
 
Аватар для cthutq_1956
 

Регистрация: 17.11.2016
Адрес: Челябинск
Сообщений: 3,223
Сказал(а) спасибо: 5,147
Поблагодарили 1,515 раз(а) в 1,108 сообщениях
cthutq_1956 репутация неоспоримаcthutq_1956 репутация неоспоримаcthutq_1956 репутация неоспоримаcthutq_1956 репутация неоспоримаcthutq_1956 репутация неоспоримаcthutq_1956 репутация неоспоримаcthutq_1956 репутация неоспоримаcthutq_1956 репутация неоспоримаcthutq_1956 репутация неоспоримаcthutq_1956 репутация неоспоримаcthutq_1956 репутация неоспорима
По умолчанию

Цитата:
Сообщение от Борис 63 Посмотреть сообщение
Оцифровка с катушки пользователя -протопоп
Спасибо ему.
Борис спасибо за терпение и труд не лёгкий ,благодаря тебе слушаю хороший звук, здоровья и чистых катушек с чистыми ватками, С уважением Сергей.

Последний раз редактировалось cthutq_1956; 19.07.2017 в 07:55.
cthutq_1956 на форуме   Ответить с цитированием
Старый 19.07.2017, 02:39   #4
cthutq_1956
VIP
 
Аватар для cthutq_1956
 

Регистрация: 17.11.2016
Адрес: Челябинск
Сообщений: 3,223
Сказал(а) спасибо: 5,147
Поблагодарили 1,515 раз(а) в 1,108 сообщениях
cthutq_1956 репутация неоспоримаcthutq_1956 репутация неоспоримаcthutq_1956 репутация неоспоримаcthutq_1956 репутация неоспоримаcthutq_1956 репутация неоспоримаcthutq_1956 репутация неоспоримаcthutq_1956 репутация неоспоримаcthutq_1956 репутация неоспоримаcthutq_1956 репутация неоспоримаcthutq_1956 репутация неоспоримаcthutq_1956 репутация неоспорима
По умолчанию

Цитата:
Сообщение от cthutq_1956 Посмотреть сообщение
протопоп
Спасибо за катушку ,благодаря которой

подняли тему и на форуме появилась достойная сборка релизов Fausto Papetti над которой работал Сергей ,и любезно добавил сд из своей коллекции,форумчанин Курорт . благодарен всем ,Дмитрию большое спасибо за поддержку и терпение.
cthutq_1956 на форуме   Ответить с цитированием
2 пользователя(ей) сказали cпасибо:
ДенисПоПов27 (19.07.2017), Дмитрий (19.07.2017)
Старый 19.07.2017, 23:49   #5
ДенисПоПов27
VIP
 

Регистрация: 29.03.2011
Сообщений: 3,895
Сказал(а) спасибо: 4,897
Поблагодарили 1,647 раз(а) в 996 сообщениях
ДенисПоПов27 репутация неоспоримаДенисПоПов27 репутация неоспоримаДенисПоПов27 репутация неоспоримаДенисПоПов27 репутация неоспоримаДенисПоПов27 репутация неоспоримаДенисПоПов27 репутация неоспоримаДенисПоПов27 репутация неоспоримаДенисПоПов27 репутация неоспоримаДенисПоПов27 репутация неоспоримаДенисПоПов27 репутация неоспоримаДенисПоПов27 репутация неоспорима
По умолчанию

cthutq_1956, Будет скорость отдачи Нормальная у меня = Будет и от меня Папетти с катушки...
Который... В мп3-128 в Этой теме : http://vsetutonline.com/forum/showth...E5%EB%E8%F2%FC, под названием Икс-1 ни кто определить не желает, какой это альбом и Папетти вообще там???
Икс-2 - Вторая сторона этой катушки... Кто там поёт - Тоже вот знать интересно...
ДенисПоПов27 на форуме   Ответить с цитированием
Старый 05.01.2018, 17:42   #6
turgen
Новичок
 

Регистрация: 23.12.2017
Сообщений: 5
Сказал(а) спасибо: 3
Поблагодарили 1 раз в 1 сообщении
turgen на пути к лучшему
По умолчанию

Спасибо за альбом.
turgen вне форума   Ответить с цитированием
Пользователь сказал cпасибо:
ДенисПоПов27 (06.01.2018)
Ответ

Закладки

Опции темы
Опции просмотра

Ваши права в разделе
Вы не можете создавать новые темы
Вы не можете отвечать в темах
Вы не можете прикреплять вложения
Вы не можете редактировать свои сообщения

BB коды Вкл.
Смайлы Вкл.
[IMG] код Вкл.
HTML код Выкл.

Быстрый переход


Часовой пояс GMT, время: 17:27.


Powered by vBulletin® Version 3.8.2
Copyright ©2000 - 2018, Jelsoft Enterprises Ltd. Перевод: zCarot
Rambler's Top100 Республика Татарстан - Каталог сайтов