Все Тут Online

   
Меню сайта:
Главная
Форум
Чат
- Online приложения:
- Игры
- Выбор стиля:
- FAQ
- Для начинающих

Вернуться   Все Тут Online > МАГНИТИЗДАТ (Оцифровки Кассет и Бобин) (lossless) > В гостях у Бориса 63 (Оцифровки с бобин и с кассет) > Рок Музыка (Lossless)

загрузка...
Ответ
 
Опции темы Опции просмотра
Старый 07.09.2017, 09:51   #1
Борис 63
Супермодератор. Смотрящий за форумом. Модератор разделов оцифровок.
 
Аватар для Борис 63
 

Регистрация: 01.02.2010
Адрес: СССР Москва
Сообщений: 12,234
Сказал(а) спасибо: 6,246
Поблагодарили 38,091 раз(а) в 6,086 сообщениях
Борис 63 репутация неоспоримаБорис 63 репутация неоспоримаБорис 63 репутация неоспоримаБорис 63 репутация неоспоримаБорис 63 репутация неоспоримаБорис 63 репутация неоспоримаБорис 63 репутация неоспоримаБорис 63 репутация неоспоримаБорис 63 репутация неоспоримаБорис 63 репутация неоспоримаБорис 63 репутация неоспорима
По умолчанию (24/96) Гарик Сукачев и Неприкасаемые - Брел, брел, брел... (1995) (lossless)

загрузка...





Оцифровка со студийной катушки.

Подающий аппарат - на фото.

Формат записи - 19/2 .

Треклист:

01 Неприкасаемые - Дорога под землю
02 Неприкасаемые - Без четверти восемь
03 Неприкасаемые - Эрегированный
04 Неприкасаемые - Ассоль
05 Неприкасаемые - Брёл, брёл, брёл
06 Неприкасаемые - Напои меня водой


ссылка


Скрытый текст (вы должны зарегистрироваться или войти под своим логином):
У вас нет прав чтобы видеть скрытый текст, содержащейся здесь.
__________________
Ccылка на тему: Как скачивать с Яндекс диска!

Чтобы быстро скачать чужой опубликованный файл, сохраните его на свой Диск. На вашем Диске файл окажется мгновенно, а свои файлы вы всегда можете скачать без ограничений.

Последний раз редактировалось Борис 63; 07.09.2017 в 09:58.
Борис 63 вне форума   Ответить с цитированием
9 пользователя(ей) сказали cпасибо:
9Yorik6 (08.09.2017), ГеннадийС161 (14.09.2017), Дмитрий (07.09.2017), cthutq_1956 (07.09.2017), Eugene the Bee (21.11.2017), Krock60 (07.09.2017), Саша (beloborod) (07.09.2017), фёдор1969 (07.09.2017), Pensioneer (07.09.2017)
Старый 07.09.2017, 16:36   #2
cthutq_1956
VIP
 
Аватар для cthutq_1956
 

Регистрация: 17.11.2016
Адрес: Челябинск
Сообщений: 2,437
Сказал(а) спасибо: 3,715
Поблагодарили 944 раз(а) в 727 сообщениях
cthutq_1956 репутация неоспоримаcthutq_1956 репутация неоспоримаcthutq_1956 репутация неоспоримаcthutq_1956 репутация неоспоримаcthutq_1956 репутация неоспоримаcthutq_1956 репутация неоспоримаcthutq_1956 репутация неоспоримаcthutq_1956 репутация неоспоримаcthutq_1956 репутация неоспоримаcthutq_1956 репутация неоспоримаcthutq_1956 репутация неоспорима
По умолчанию

Напои меня водой ,шедевр спасибо за релиз всё круто .
cthutq_1956 вне форума   Ответить с цитированием
Старый 13.09.2017, 09:33   #3
ledcom
Новичок
 

Регистрация: 16.11.2010
Сообщений: 16
Сказал(а) спасибо: 1
Поблагодарили 6 раз(а) в 4 сообщениях
ledcom на пути к лучшему
По умолчанию cue

Код:
FILE "неприкасаемые 95.flac" MP3
TITLE "Брёл, брёл, брёл"
TRACK 01 AUDIO
    TITLE "Дорога под землю"
    PERFORMER "Неприкасаемые"
    INDEX 01 00:00:00
TRACK 02 AUDIO
    TITLE "Без четверти восемь"
    PERFORMER "Неприкасаемые"
    INDEX 01 10:53:57
TRACK 03 AUDIO
    TITLE "Эрегированный"
    PERFORMER "Неприкасаемые"
    INDEX 01 17:20:50
TRACK 04 AUDIO
    TITLE "Ассоль"
    PERFORMER "Неприкасаемые"
    INDEX 01 21:58:57
TRACK 05 AUDIO
    TITLE "Брёл, брёл, брёл"
    PERFORMER "Неприкасаемые"
    INDEX 01 30:58:53
TRACK 06 AUDIO
    TITLE "Напои меня водой"
    PERFORMER "Неприкасаемые"
    INDEX 01 36:40:06
ledcom вне форума   Ответить с цитированием
Пользователь сказал cпасибо:
Борис 63 (13.09.2017)
Ответ

Закладки

Опции темы
Опции просмотра

Ваши права в разделе
Вы не можете создавать новые темы
Вы не можете отвечать в темах
Вы не можете прикреплять вложения
Вы не можете редактировать свои сообщения

BB коды Вкл.
Смайлы Вкл.
[IMG] код Вкл.
HTML код Выкл.

Быстрый переход


Часовой пояс GMT, время: 00:14.


Powered by vBulletin® Version 3.8.2
Copyright ©2000 - 2017, Jelsoft Enterprises Ltd. Перевод: zCarot
Rambler's Top100 Республика Татарстан - Каталог сайтов