Все Тут Online

   
Меню сайта:
Главная
Форум
Чат
- Online приложения:
- Игры
- Выбор стиля:
- FAQ
- Для начинающих

Вернуться   Все Тут Online > МАГНИТИЗДАТ (Оцифровки Кассет и Бобин) (lossless) > В гостях у Бориса 63 (Оцифровки с бобин и с кассет) > Рок Музыка (Lossless)

загрузка...
Ответ
 
Опции темы Опции просмотра
Старый 20.03.2017, 09:07   #1
Борис 63
Супермодератор. Смотрящий за форумом. Модератор разделов оцифровок.
 
Аватар для Борис 63
 

Регистрация: 01.02.2010
Адрес: СССР Москва
Сообщений: 12,234
Сказал(а) спасибо: 6,246
Поблагодарили 38,091 раз(а) в 6,086 сообщениях
Борис 63 репутация неоспоримаБорис 63 репутация неоспоримаБорис 63 репутация неоспоримаБорис 63 репутация неоспоримаБорис 63 репутация неоспоримаБорис 63 репутация неоспоримаБорис 63 репутация неоспоримаБорис 63 репутация неоспоримаБорис 63 репутация неоспоримаБорис 63 репутация неоспоримаБорис 63 репутация неоспорима
По умолчанию (24/96) гр. Люцифер - 1984 год (lossless)

загрузка...


Оцифровка с кассеты Игоря (капитан_Воронин)
Спасибо ему.

1. Дорога
2. Люцифер
3. Друг мой (Бумажный змей)
4. Что со мной
5. Осколки небес
6. Это ничто
7. Если скажешь ты кто твой друг
8. Я верю, что взлечу с тобой
9. Сказка
10. Все пройдет
11. Замок сна
12. Среди всех людей
13. Лунный дом


ссылка


Скрытый текст (вы должны зарегистрироваться или войти под своим логином):
У вас нет прав чтобы видеть скрытый текст, содержащейся здесь.
__________________
Ccылка на тему: Как скачивать с Яндекс диска!

Чтобы быстро скачать чужой опубликованный файл, сохраните его на свой Диск. На вашем Диске файл окажется мгновенно, а свои файлы вы всегда можете скачать без ограничений.

Последний раз редактировалось Борис 63; 20.03.2017 в 11:59.
Борис 63 вне форума   Ответить с цитированием
12 пользователя(ей) сказали cпасибо:
Андрей Ч (20.03.2017), Дмитрий (20.03.2017), bobrovich (20.03.2017), Круиз (20.03.2017), gnrtbc (24.03.2017), Печальный принц (13.10.2017), Саша (beloborod) (12.10.2017), Феликс (01.08.2017), Туристъ (30.06.2017), фёдор1969 (20.03.2017), suede69 (22.03.2017), Yury_T (22.03.2017)
Старый 20.03.2017, 11:08   #2
Капитан_Воронин
Команда
 

Регистрация: 03.07.2011
Сообщений: 266
Сказал(а) спасибо: 9
Поблагодарили 271 раз(а) в 144 сообщениях
Капитан_Воронин за этого человека можно гордитсяКапитан_Воронин за этого человека можно гордитсяКапитан_Воронин за этого человека можно гордитсяКапитан_Воронин за этого человека можно гордитсяКапитан_Воронин за этого человека можно гордитсяКапитан_Воронин за этого человека можно гордитсяКапитан_Воронин за этого человека можно гордитсяКапитан_Воронин за этого человека можно гордитсяКапитан_Воронин за этого человека можно гордитсяКапитан_Воронин за этого человека можно гордится
По умолчанию

1. Дорога
2. Люцифер
3. Друг мой (Бумажный змей)
4. Что со мной
5. Осколки небес
6. Это ничто
7. Если скажешь ты кто твой друг
8. Я верю, что взлечу с тобой
9. Сказка
10. Все пройдет
11. Замок сна
12. Среди всех людей
13. Лунный дом
Капитан_Воронин вне форума   Ответить с цитированием
5 пользователя(ей) сказали cпасибо:
Дмитрий (20.03.2017), bobrovich (12.10.2017), Саша (beloborod) (12.10.2017), Феликс (01.08.2017), suede69 (22.03.2017)
Старый 20.03.2017, 14:29   #3
Саша (beloborod)
Модератор
 
Аватар для Саша (beloborod)
 

Регистрация: 30.07.2012
Адрес: Сибирь
Сообщений: 1,732
Сказал(а) спасибо: 5,242
Поблагодарили 7,725 раз(а) в 1,190 сообщениях
Саша (beloborod) репутация неоспоримаСаша (beloborod) репутация неоспоримаСаша (beloborod) репутация неоспоримаСаша (beloborod) репутация неоспоримаСаша (beloborod) репутация неоспоримаСаша (beloborod) репутация неоспоримаСаша (beloborod) репутация неоспоримаСаша (beloborod) репутация неоспоримаСаша (beloborod) репутация неоспоримаСаша (beloborod) репутация неоспоримаСаша (beloborod) репутация неоспорима
По умолчанию

Боря,Игорь,Спасибо большое

CUE - https://yadi.sk/d/0ERMvcI_3GBAoH

Код:
 REM GENRE "Рок"
REM DATE 1984
REM COMMENT "Оцифровка - Борис 63"
TITLE "Магнитоальбом"
PERFORMER "гр.Люцифер"
FILE "люцифер 84.flac" WAVE
  TRACK 01 AUDIO
TITLE "Дорога"
PERFORMER "гр.Люцифер"
    INDEX 01 00:00:00
  TRACK 02 AUDIO
TITLE "Люцифер"
PERFORMER "гр.Люцифер"
    INDEX 01 02:37:05
  TRACK 03 AUDIO
TITLE "Друг мой"
PERFORMER "гр.Люцифер"
    INDEX 01 07:14:74
  TRACK 04 AUDIO
TITLE "Что со мной"
PERFORMER "гр.Люцифер"
    INDEX 01 10:04:39
  TRACK 05 AUDIO
TITLE "Осколки небес"
PERFORMER "гр.Люцифер"
    INDEX 01 13:20:39
  TRACK 06 AUDIO
TITLE "Это ничто"
PERFORMER "гр.Люцифер"
    INDEX 01 17:25:51
  TRACK 07 AUDIO
TITLE "Если скажешь ты кто твой друг"
PERFORMER "гр.Люцифер"
    INDEX 01 20:15:02
  TRACK 08 AUDIO
TITLE "Я верю, что взлечу с тобой"
PERFORMER "гр.Люцифер"
    INDEX 01 24:31:27
  TRACK 09 AUDIO
TITLE "Сказка"
PERFORMER "гр.Люцифер"
    INDEX 01 27:42:20
  TRACK 10 AUDIO
TITLE "Все пройдет"
PERFORMER "гр.Люцифер"
    INDEX 01 30:50:39
  TRACK 11 AUDIO
TITLE "Замок сна"
PERFORMER "гр.Люцифер"
    INDEX 01 33:42:59
  TRACK 12 AUDIO
TITLE "Среди всех людей"
PERFORMER "гр.Люцифер"
    INDEX 01 36:05:63
  TRACK 13 AUDIO
TITLE "Лунный дом"
PERFORMER "гр.Люцифер"
    INDEX 01 39:35:65
Саша (beloborod) вне форума   Ответить с цитированием
4 пользователя(ей) сказали cпасибо:
Дмитрий (20.03.2017), Борис 63 (20.03.2017), Феликс (01.08.2017), suede69 (22.03.2017)
Старый 12.10.2017, 01:59   #4
suede69
Пользователь
 
Аватар для suede69
 

Регистрация: 29.01.2011
Сообщений: 66
Сказал(а) спасибо: 487
Поблагодарили 42 раз(а) в 28 сообщениях
suede69 - весьма и весьма положительная личностьsuede69 - весьма и весьма положительная личностьsuede69 - весьма и весьма положительная личность
По умолчанию

Сегодня дошли руки наконец послушать. Сильнейший альбом! Спасибо Игорю за сохранность и Борису за отличную оцифровку Классная группа, информации только мало по ней.
suede69 вне форума   Ответить с цитированием
Старый 12.10.2017, 05:41   #5
ДенисПоПов27
VIP
 

Регистрация: 29.03.2011
Сообщений: 2,505
Сказал(а) спасибо: 3,272
Поблагодарили 1,121 раз(а) в 665 сообщениях
ДенисПоПов27 репутация неоспоримаДенисПоПов27 репутация неоспоримаДенисПоПов27 репутация неоспоримаДенисПоПов27 репутация неоспоримаДенисПоПов27 репутация неоспоримаДенисПоПов27 репутация неоспоримаДенисПоПов27 репутация неоспоримаДенисПоПов27 репутация неоспоримаДенисПоПов27 репутация неоспоримаДенисПоПов27 репутация неоспоримаДенисПоПов27 репутация неоспорима
По умолчанию

Да. Великий Могучий Русский!!! Руки пешком на конец дошли послушать.
До ушей дошли мимо "конца"? У рук ноги ходить есть? .
Ушами мы слушаем, а не ходящими руками!
ДенисПоПов27 вне форума   Ответить с цитированием
Ответ

Закладки

Опции темы
Опции просмотра

Ваши права в разделе
Вы не можете создавать новые темы
Вы не можете отвечать в темах
Вы не можете прикреплять вложения
Вы не можете редактировать свои сообщения

BB коды Вкл.
Смайлы Вкл.
[IMG] код Вкл.
HTML код Выкл.

Быстрый переход


Часовой пояс GMT, время: 00:18.


Powered by vBulletin® Version 3.8.2
Copyright ©2000 - 2017, Jelsoft Enterprises Ltd. Перевод: zCarot
Rambler's Top100 Республика Татарстан - Каталог сайтов