Все Тут Online
Все Тут Online
Новые сообщения
Все сообщения за последних 24 часа
Расширенный Поиск

   
Меню сайта:
Главная
Форум
Чат
- Online приложения:
- Игры
- Выбор стиля:
- FAQ
- Для начинающих

Вернуться   Все Тут Online > CD (Компакт диски) Lossless - МУЗЫКА БЕЗ ПОТЕРИ КАЧЕСТВА > Bigger's Mastering Releases

Старый 13.04.2020, 17:05   #1
Дмитрий
Music Group
 
Аватар для Дмитрий
 

Регистрация: 12.12.2008
Адрес: Москва прошлого тысячелетия.
Сообщений: 143,883
Сказал(а) спасибо: 32,349
Поблагодарили 161,305 раз(а) в 58,682 сообщениях
Дмитрий репутация неоспоримаДмитрий репутация неоспоримаДмитрий репутация неоспоримаДмитрий репутация неоспоримаДмитрий репутация неоспоримаДмитрий репутация неоспоримаДмитрий репутация неоспоримаДмитрий репутация неоспоримаДмитрий репутация неоспоримаДмитрий репутация неоспоримаДмитрий репутация неоспорима
По умолчанию Joe Satriani - 2020 - Shapeshifting

Скрытый текст (вы должны зарегистрироваться или войти под своим логином):
У вас нет прав чтобы видеть скрытый текст, содержащейся здесь.




Dynamic Range Meter 1.1.1
log date: 2020-04-13 19:52:28

--------------------------------------------------------------------------------
Analyzed: Joe Satriani / Shapeshifting
--------------------------------------------------------------------------------

DR Peak RMS Duration Track
--------------------------------------------------------------------------------
DR12 -2.17 dB -16.24 dB 3:56 01-Shapeshifting
DR13 -1.08 dB -15.90 dB 4:14 02-Big Distortion
DR12 -1.87 dB -16.64 dB 2:32 03-All for Love
DR12 -2.58 dB -16.06 dB 3:43 04-Ali Farka, Dick Dale, an Alien and Me
DR13 -1.24 dB -16.63 dB 4:09 05-Teardrops
DR14 -0.10 dB -16.01 dB 3:31 06-Perfect Dust
DR13 -1.77 dB -16.19 dB 3:36 07-Nineteen Eighty
DR14 -1.44 dB -17.40 dB 3:25 08-All My Friends Are Here
DR13 -2.18 dB -16.64 dB 3:23 09-Spirits, Ghosts and Outlaws
DR14 -0.44 dB -17.24 dB 3:42 10-Falling Stars
DR12 -3.29 dB -19.23 dB 2:37 11-Waiting
DR12 -2.06 dB -16.37 dB 5:03 12-Here the Blue River
DR12 -2.73 dB -16.87 dB 2:49 13-Yesterday's Yesterday
--------------------------------------------------------------------------------

Number of tracks: 13
Official DR value: DR13

Samplerate: 192000 Hz
Channels: 2
Bits per sample: 24
Bitrate: 4347 kbps
Codec: FLAC
================================================== ==============================
Дмитрий вне форума   Ответить с цитированием
3 пользователя(ей) сказали cпасибо:
Dimitrid (13.04.2020), КЛЯКСА (25.04.2020), zakachovsky (13.04.2020)
Старый 13.04.2020, 17:05   #2
Дмитрий
Music Group
 
Аватар для Дмитрий
 

Регистрация: 12.12.2008
Адрес: Москва прошлого тысячелетия.
Сообщений: 143,883
Сказал(а) спасибо: 32,349
Поблагодарили 161,305 раз(а) в 58,682 сообщениях
Дмитрий репутация неоспоримаДмитрий репутация неоспоримаДмитрий репутация неоспоримаДмитрий репутация неоспоримаДмитрий репутация неоспоримаДмитрий репутация неоспоримаДмитрий репутация неоспоримаДмитрий репутация неоспоримаДмитрий репутация неоспоримаДмитрий репутация неоспоримаДмитрий репутация неоспорима
По умолчанию

Дмитрий вне форума   Ответить с цитированием
Ответ

Закладки

Опции темы
Опции просмотра

Ваши права в разделе
Вы не можете создавать новые темы
Вы не можете отвечать в темах
Вы не можете прикреплять вложения
Вы не можете редактировать свои сообщения

BB коды Вкл.
Смайлы Вкл.
[IMG] код Вкл.
HTML код Выкл.

Быстрый переход


Часовой пояс GMT, время: 09:51.


Powered by vBulletin® Version 3.8.2
Copyright ©2000 - 2020, Jelsoft Enterprises Ltd. Перевод: zCarot
Rambler's Top100 Республика Татарстан - Каталог сайтов