Все Тут Online
Все Тут Online
Новые сообщения
Все сообщения за последних 24 часа
Расширенный Поиск

   
Меню сайта:
Главная
Форум
Чат
- Online приложения:
- Игры
- Выбор стиля:
- FAQ
- Для начинающих

Вернуться   Все Тут Online > ОЦИФРОВКИ ВИНИЛА (Lossless) > Оцифровки ВИНИЛА пользователей нашего форума > Оцифровки Борис 63 (Technics SL-1200 MK3D // Victor QL-A7 [Audio-Technica AT440MLa] => Accuphase 200

Старый 08.11.2018, 10:44   #1
Борис 63
Супермодератор. Смотрящий за форумом. Модератор разделов оцифровок.
 
Аватар для Борис 63
 

Регистрация: 01.02.2010
Адрес: СССР Москва
Сообщений: 13,653
Сказал(а) спасибо: 7,645
Поблагодарили 44,939 раз(а) в 7,223 сообщениях
Борис 63 репутация неоспоримаБорис 63 репутация неоспоримаБорис 63 репутация неоспоримаБорис 63 репутация неоспоримаБорис 63 репутация неоспоримаБорис 63 репутация неоспоримаБорис 63 репутация неоспоримаБорис 63 репутация неоспоримаБорис 63 репутация неоспоримаБорис 63 репутация неоспоримаБорис 63 репутация неоспорима
По умолчанию (24/96) AMANDA LEAR - Never Trust A Pretty Face (1979) [Ariola 200017] (lossless)


















Оцифровка с пластинки Игоря (Капитан_Воронин)
Спасибо ему.

головка А/Т 440


Треклист:

01 AMANDA LEAR - Fashion Pack
02 AMANDA LEAR - Forget It
03 AMANDA LEAR - Lili Marleen
04 AMANDA LEAR - Never Trust A Pretty Face
05 AMANDA LEAR - The Sphinx
06 AMANDA LEAR - Black Holes
07 AMANDA LEAR - Intellectually
08 AMANDA LEAR - Miroir
09 AMANDA LEAR - Dreamer (South Pacific)




ссылка

Скрытый текст (вы должны зарегистрироваться или войти под своим логином):
У вас нет прав чтобы видеть скрытый текст, содержащейся здесь.
__________________
Ccылка на тему: Как скачивать с Яндекс диска!

Чтобы быстро скачать чужой опубликованный файл, сохраните его на свой Диск. На вашем Диске файл окажется мгновенно, а свои файлы вы всегда можете скачать без ограничений.
Борис 63 вне форума   Ответить с цитированием
11 пользователя(ей) сказали cпасибо:
Бархан (08.11.2018), Дмитрий (08.11.2018), cloud (08.11.2018), cthutq_1956 (08.11.2018), DeD (08.11.2018), Корф (08.11.2018), mnbvvbnm (09.11.2018), Pensioneer (09.11.2018), piff62 (08.11.2018), RostiC (09.11.2018), Unker (08.11.2018)
Старый 08.11.2018, 11:06   #2
cthutq_1956
VIP
 
Аватар для cthutq_1956
 

Регистрация: 17.11.2016
Адрес: Челябинск
Сообщений: 3,520
Сказал(а) спасибо: 6,109
Поблагодарили 1,883 раз(а) в 1,408 сообщениях
cthutq_1956 репутация неоспоримаcthutq_1956 репутация неоспоримаcthutq_1956 репутация неоспоримаcthutq_1956 репутация неоспоримаcthutq_1956 репутация неоспоримаcthutq_1956 репутация неоспоримаcthutq_1956 репутация неоспоримаcthutq_1956 репутация неоспоримаcthutq_1956 репутация неоспоримаcthutq_1956 репутация неоспоримаcthutq_1956 репутация неоспорима
По умолчанию

Замечательно ,спасибо друзья
cthutq_1956 на форуме   Ответить с цитированием
Старый 08.11.2018, 14:29   #3
Дмитрий
Music Group
 
Аватар для Дмитрий
 

Регистрация: 12.12.2008
Адрес: Москва прошлого тысячелетия.
Сообщений: 111,117
Сказал(а) спасибо: 27,090
Поблагодарили 120,524 раз(а) в 46,164 сообщениях
Дмитрий репутация неоспоримаДмитрий репутация неоспоримаДмитрий репутация неоспоримаДмитрий репутация неоспоримаДмитрий репутация неоспоримаДмитрий репутация неоспоримаДмитрий репутация неоспоримаДмитрий репутация неоспоримаДмитрий репутация неоспоримаДмитрий репутация неоспоримаДмитрий репутация неоспорима
Отправить сообщение для Дмитрий с помощью Skype™
По умолчанию

Код:
REM GENRE "Synth-pop, Disco"
REM DATE 1979
REM COMMENT "Оцифровка - Борис 63"
TITLE "Never Trust A Pretty Face"
PERFORMER "AMANDA LEAR"
FILE "AMANDA LEAR -Never trust a pretty face- 1978.flac" WAVE
  TRACK 01 AUDIO
TITLE "Fashion Pack"
PERFORMER "AMANDA LEAR"
    INDEX 01 00:05:37
  TRACK 02 AUDIO
TITLE "Forget It"
PERFORMER "AMANDA LEAR"
    INDEX 01 05:18:67
  TRACK 03 AUDIO
TITLE "Lili Marleen"
PERFORMER "AMANDA LEAR"
    INDEX 01 09:35:24
  TRACK 04 AUDIO
TITLE "Never Trust A Pretty Face"
PERFORMER "AMANDA LEAR"
    INDEX 01 14:22:22
  TRACK 05 AUDIO
TITLE "The Sphinx"
PERFORMER "AMANDA LEAR"
    INDEX 01 19:19:40
  TRACK 06 AUDIO
TITLE "Black Holes"
PERFORMER "AMANDA LEAR"
    INDEX 01 23:50:42
  TRACK 07 AUDIO
TITLE "Intellectually"
PERFORMER "AMANDA LEAR"
    INDEX 01 28:58:02
  TRACK 08 AUDIO
TITLE "Miroir"
PERFORMER "AMANDA LEAR"
    INDEX 01 33:17:63
  TRACK 09 AUDIO
TITLE "Dreamer (South Pacific)"
PERFORMER "AMANDA LEAR"
    INDEX 01 35:19:40
  TRACK 10 AUDIO
TITLE ""
PERFORMER ""
    INDEX 01 40:34:72
__________________












Ccылка на тему: Как скачивать с Яндекс диска!

Чтобы быстро скачать чужой опубликованный файл, сохраните его на свой Диск. На вашем Диске файл окажется мгновенно, а свои файлы вы всегда можете скачать без ограничений. Для этого нужно пройти регистрацию на https://mail.yandex.ru/

Уж лучше голодать, чем что попало есть... И лучше одному, чем вместе с кем попало.

Не работают ссылки, не надо флудить в теме. Сообщите ЗДЕСЬ!




Скачал и не оставил комментарий - понизил релизёру мотивацию делиться с окружающими!

Команда Все Тут желает Вам приятного прослушивания!



Дмитрий вне форума   Ответить с цитированием
2 пользователя(ей) сказали cпасибо:
Бархан (09.11.2018), Борис 63 (08.11.2018)
Ответ

Закладки

Опции темы
Опции просмотра

Ваши права в разделе
Вы не можете создавать новые темы
Вы не можете отвечать в темах
Вы не можете прикреплять вложения
Вы не можете редактировать свои сообщения

BB коды Вкл.
Смайлы Вкл.
[IMG] код Вкл.
HTML код Выкл.

Быстрый переход


Часовой пояс GMT, время: 12:36.


Powered by vBulletin® Version 3.8.2
Copyright ©2000 - 2018, Jelsoft Enterprises Ltd. Перевод: zCarot
Rambler's Top100 Республика Татарстан - Каталог сайтов