Все Тут Online
Все Тут Online
Новые сообщения
Все сообщения за последних 24 часа
Расширенный Поиск

   
Меню сайта:
Главная
Форум
Чат
- Online приложения:
- Игры
- Выбор стиля:
- FAQ
- Для начинающих

Вернуться   Все Тут Online > ОЦИФРОВКИ ВИНИЛА (Lossless) > Оцифровки ВИНИЛА пользователей нашего форума > Оцифровки Борис 63 (Technics SL-1200 MK3D // Victor QL-A7 [Audio-Technica AT440MLa] => Accuphase 200

Старый 08.11.2018, 12:40   #1
Борис 63
Модератор раздела оцифровок
 
Аватар для Борис 63
 

Регистрация: 01.02.2010
Адрес: СССР Москва
Сообщений: 14,162
Сказал(а) спасибо: 8,169
Поблагодарили 47,986 раз(а) в 7,606 сообщениях
Борис 63 репутация неоспоримаБорис 63 репутация неоспоримаБорис 63 репутация неоспоримаБорис 63 репутация неоспоримаБорис 63 репутация неоспоримаБорис 63 репутация неоспоримаБорис 63 репутация неоспоримаБорис 63 репутация неоспоримаБорис 63 репутация неоспоримаБорис 63 репутация неоспоримаБорис 63 репутация неоспорима
По умолчанию (24/96) AMANDA LEAR - I Am A Photograph (1977) [Ariola 25 473 OT] (lossless)










Оцифровка с пластинки Игоря (Капитан_Воронин)
Спасибо ему.

головка - А/Т 440


Треклист:

01 AMANDA LEAR - Blood And Honey
02 AMANDA LEAR - Alphabet (Prelude In C By J.S. Bach)
03 AMANDA LEAR - These Boots Are Made For Walkin'
04 AMANDA LEAR - Tomorrow
05 AMANDA LEAR - Pretty Boys
06 AMANDA LEAR - Queen Of China-Town
07 AMANDA LEAR - Alligator
08 AMANDA LEAR - The Lady In Black
09 AMANDA LEAR - I Am A Photograph
10 AMANDA LEAR - Blue Tango




ссылка


Скрытый текст (вы должны зарегистрироваться или войти под своим логином):
У вас нет прав чтобы видеть скрытый текст, содержащейся здесь.
__________________
Ccылка на тему: Как скачивать с Яндекс диска!

Чтобы быстро скачать чужой опубликованный файл, сохраните его на свой Диск. На вашем Диске файл окажется мгновенно, а свои файлы вы всегда можете скачать без ограничений.
Борис 63 вне форума   Ответить с цитированием
12 пользователя(ей) сказали cпасибо:
Бархан (08.11.2018), Дмитрий (08.11.2018), cloud (08.11.2018), cthutq_1956 (08.11.2018), DeD (08.11.2018), Корф (08.11.2018), искатель (18.11.2018), Fellow (08.11.2018), Pensioneer (09.11.2018), piff62 (08.11.2018), RostiC (09.11.2018), Unker (08.11.2018)
Старый 08.11.2018, 13:40   #2
Дмитрий
Music Group
 
Аватар для Дмитрий
 

Регистрация: 12.12.2008
Адрес: Москва прошлого тысячелетия.
Сообщений: 119,873
Сказал(а) спасибо: 29,322
Поблагодарили 133,853 раз(а) в 49,805 сообщениях
Дмитрий репутация неоспоримаДмитрий репутация неоспоримаДмитрий репутация неоспоримаДмитрий репутация неоспоримаДмитрий репутация неоспоримаДмитрий репутация неоспоримаДмитрий репутация неоспоримаДмитрий репутация неоспоримаДмитрий репутация неоспоримаДмитрий репутация неоспоримаДмитрий репутация неоспорима
По умолчанию

Код:
REM GENRE "Synth-pop, Disco"
REM DATE 1977
REM COMMENT "Оцифровка - Борис 63"
TITLE "I Am A Photograph"
PERFORMER "AMANDA LEAR"
FILE "AMANDA LEAR -I am a photograph- 1977.flac" WAVE
  TRACK 01 AUDIO
TITLE "Blood And Honey"
PERFORMER "AMANDA LEAR"
    INDEX 01 00:05:00
  TRACK 02 AUDIO
TITLE "Alphabet (Prelude In C By J.S. Bach)"
PERFORMER "AMANDA LEAR"
    INDEX 01 04:57:13
  TRACK 03 AUDIO
TITLE "These Boots Are Made For Walkin'"
PERFORMER "AMANDA LEAR"
    INDEX 01 08:59:21
  TRACK 04 AUDIO
TITLE "Tomorrow"
PERFORMER "AMANDA LEAR"
    INDEX 01 12:10:28
  TRACK 05 AUDIO
TITLE "Pretty Boys"
PERFORMER "AMANDA LEAR"
    INDEX 01 16:24:31
  TRACK 06 AUDIO
TITLE "Queen Of China-Town"
PERFORMER "AMANDA LEAR"
    INDEX 01 19:25:27
  TRACK 07 AUDIO
TITLE "Alligator"
PERFORMER "AMANDA LEAR"
    INDEX 01 23:44:17
  TRACK 08 AUDIO
TITLE "The Lady In Black"
PERFORMER "AMANDA LEAR"
    INDEX 01 28:19:58
  TRACK 09 AUDIO
TITLE "I Am A Photograph"
PERFORMER "AMANDA LEAR"
    INDEX 01 32:00:63
  TRACK 10 AUDIO
TITLE "Blue Tango"
PERFORMER "AMANDA LEAR"
    INDEX 01 36:28:48
  TRACK 11 AUDIO
TITLE ""
PERFORMER ""
    INDEX 01 39:14:31
__________________
Кто желает оценить проделанную мной работу и отблагодарить, напишите мне в личку! Приму поддержку от благодарных пользователей. Яндекс кошелек для переводов: 410018993140694
Создать свой кошелек предельно просто можно здесь

Cпасибо Вам Большое!
С Уважением -Дмитрий-

https://money.yandex.ru/to/410018993140694
Дмитрий вне форума   Ответить с цитированием
4 пользователя(ей) сказали cпасибо:
Бархан (08.11.2018), Борис 63 (08.11.2018), cthutq_1956 (08.11.2018), Fellow (08.11.2018)
Старый 08.11.2018, 13:52   #3
cthutq_1956
VIP
 
Аватар для cthutq_1956
 

Регистрация: 17.11.2016
Адрес: Челябинск
Сообщений: 3,847
Сказал(а) спасибо: 6,758
Поблагодарили 2,120 раз(а) в 1,568 сообщениях
cthutq_1956 репутация неоспоримаcthutq_1956 репутация неоспоримаcthutq_1956 репутация неоспоримаcthutq_1956 репутация неоспоримаcthutq_1956 репутация неоспоримаcthutq_1956 репутация неоспоримаcthutq_1956 репутация неоспоримаcthutq_1956 репутация неоспоримаcthutq_1956 репутация неоспоримаcthutq_1956 репутация неоспоримаcthutq_1956 репутация неоспорима
По умолчанию

Цитата:
Сообщение от Борис 63 Посмотреть сообщение
Оцифровка с пластинки Игоря (Капитан_Воронин)
Спасибо ему.
Борис большое спасибо ,звук не оторваться Самый правильный звук
cthutq_1956 вне форума   Ответить с цитированием
Старый 08.11.2018, 14:00   #4
cloud
Команда
 
Аватар для cloud
 

Регистрация: 22.08.2011
Адрес: Israil
Сообщений: 2,268
Сказал(а) спасибо: 1,714
Поблагодарили 3,731 раз(а) в 1,175 сообщениях
cloud репутация неоспоримаcloud репутация неоспоримаcloud репутация неоспоримаcloud репутация неоспоримаcloud репутация неоспоримаcloud репутация неоспоримаcloud репутация неоспоримаcloud репутация неоспоримаcloud репутация неоспоримаcloud репутация неоспоримаcloud репутация неоспорима
По умолчанию

Борис 63, спасибо, солидный диск, будем брать.
cloud вне форума   Ответить с цитированием
Пользователь сказал cпасибо:
Борис 63 (08.11.2018)
Ответ

Закладки

Опции темы
Опции просмотра

Ваши права в разделе
Вы не можете создавать новые темы
Вы не можете отвечать в темах
Вы не можете прикреплять вложения
Вы не можете редактировать свои сообщения

BB коды Вкл.
Смайлы Вкл.
[IMG] код Вкл.
HTML код Выкл.

Быстрый переход


Часовой пояс GMT, время: 23:16.


Powered by vBulletin® Version 3.8.2
Copyright ©2000 - 2019, Jelsoft Enterprises Ltd. Перевод: zCarot
Rambler's Top100 Республика Татарстан - Каталог сайтов