Все Тут Online
Все Тут Online
Новые сообщения
Все сообщения за последних 24 часа
Расширенный Поиск

   
Меню сайта:
Главная
Форум
Чат
- Online приложения:
- Игры
- Выбор стиля:
- FAQ
- Для начинающих

Вернуться   Все Тут Online > МАГНИТИЗДАТ (Оцифровки Кассет и Бобин) (lossless) > РОК МУЗЫКА (Lossless) > Отечественная

Старый 13.09.2018, 12:41   #1
Капитан_Воронин
Команда
 

Регистрация: 03.07.2011
Сообщений: 388
Сказал(а) спасибо: 9
Поблагодарили 848 раз(а) в 240 сообщениях
Капитан_Воронин репутация неоспоримаКапитан_Воронин репутация неоспоримаКапитан_Воронин репутация неоспоримаКапитан_Воронин репутация неоспоримаКапитан_Воронин репутация неоспоримаКапитан_Воронин репутация неоспоримаКапитан_Воронин репутация неоспоримаКапитан_Воронин репутация неоспоримаКапитан_Воронин репутация неоспоримаКапитан_Воронин репутация неоспоримаКапитан_Воронин репутация неоспорима
По умолчанию Александр Барыкин и гр. Карнавал - Концерт в Москве 84 год

Магнитофон brAun С3
Программа WaveLab

Александр Барыкин и гр. Карнавал - Концерт в Москве 84 год

Два варианта оцифровки с двух разных кассет

Карнавал 84 – Концерт в Москве (вариант 1)




01. Неслучайно
02. Поверь в себя
03. Запасной игрок
04. Стоп мотор
05. Спасательный круг
06. Я вздрагиваю от холода...
07. Представление группы
08. Тир
09. Чили
10. Возвращайся солнце

https://yadi.sk/mail?hash=pIIaHslYIO...&uid=250664181


Карнавал 84 – Концерт в Москве (вариант 2)



01. Неслучайно
02. Поверь в себя
03. Запасной игрок
04. Стоп мотор
05. Спасательный круг
06. Я вздрагиваю от холода...
07. Представление группы
08. Тир
09. Чили

https://yadi.sk/mail?hash=XBJr1gHyZJ...&uid=250664181
Капитан_Воронин вне форума   Ответить с цитированием
22 пользователя(ей) сказали cпасибо:
Гаврила60 (15.09.2018), ДенисПоПов27 (14.09.2018), Вит70 (13.09.2018), Дмитрий (19.09.2018), belomor30 (13.09.2018), bobrovich (13.09.2018), edd1966 (24.09.2018), Erg Noor (21.09.2018), Круиз (13.09.2018), подводник (14.09.2018), KINOLOG (20.09.2018), LeSovi4OK (17.09.2018), mbt (14.09.2018), Саша (beloborod) (14.09.2018), nfisher (15.09.2018), ТОМ (13.09.2018), фёдор1969 (14.09.2018), pchu (13.09.2018), pofnutiy (15.09.2018), Rocker 2015 (13.09.2018), serzhpt513 (13.09.2018), vvvzzz (15.09.2018)
Старый 19.09.2018, 08:14   #2
Rocker 2015
Пользователь
 

Регистрация: 05.07.2015
Сообщений: 65
Сказал(а) спасибо: 417
Поблагодарили 1 раз в 1 сообщении
Rocker 2015 на пути к лучшему
По умолчанию

Большое спасибо!!!

Последний раз редактировалось Rocker 2015; 20.09.2018 в 06:10.
Rocker 2015 вне форума   Ответить с цитированием
Старый 20.09.2018, 10:53   #3
Rocker 2015
Пользователь
 

Регистрация: 05.07.2015
Сообщений: 65
Сказал(а) спасибо: 417
Поблагодарили 1 раз в 1 сообщении
Rocker 2015 на пути к лучшему
По умолчанию

Добавьте пожалуйста cue файл.
Rocker 2015 вне форума   Ответить с цитированием
Старый 24.09.2018, 11:45   #4
edd1966
Пользователь
 

Регистрация: 09.02.2014
Сообщений: 65
Сказал(а) спасибо: 782
Поблагодарили 22 раз(а) в 16 сообщениях
edd1966 скоро придёт к известностиedd1966 скоро придёт к известности
По умолчанию

Как по мне то скорость немного увеличена.
edd1966 вне форума   Ответить с цитированием
Старый 01.10.2018, 13:24   #5
ledcom
Новичок
 

Регистрация: 16.11.2010
Сообщений: 23
Сказал(а) спасибо: 19
Поблагодарили 19 раз(а) в 8 сообщениях
ledcom скоро придёт к известностиledcom скоро придёт к известности
По умолчанию Cue-файл

Цитата:
FILE "Карнавал 84 - Концерт_отпр.wav" MP3
TITLE "1984, Концерт в Москве"
TRACK 01 AUDIO
TITLE "Неслучайно"
PERFORMER "Карнавал"
INDEX 01 00:11:57
TRACK 02 AUDIO
TITLE "Поверь в себя"
PERFORMER "Карнавал"
INDEX 01 03:59:69
TRACK 03 AUDIO
TITLE "Запасной игрок"
PERFORMER "Карнавал"
INDEX 01 09:04:10
TRACK 04 AUDIO
TITLE "Стоп мотор"
PERFORMER "Карнавал"
INDEX 01 15:10:51
TRACK 05 AUDIO
TITLE "Спасательный круг"
PERFORMER "Карнавал"
INDEX 01 21:11:02
TRACK 06 AUDIO
TITLE "Я вздрагиваю от холода"
PERFORMER "Карнавал"
INDEX 01 25:41:59
TRACK 07 AUDIO
TITLE "Представление группы"
PERFORMER "Карнавал"
INDEX 01 31:47:18
TRACK 08 AUDIO
TITLE "Тир"
PERFORMER "Карнавал"
INDEX 01 32:11:55
TRACK 09 AUDIO
TITLE "Чили"
PERFORMER "Карнавал"
INDEX 01 37:54:05
Cue-файл для варианта без дописки
ledcom вне форума   Ответить с цитированием
4 пользователя(ей) сказали cпасибо:
Вит70 (01.10.2018), Олегч.6.2 (02.10.2018), фёдор1969 (02.10.2018), Rocker 2015 (01.10.2018)
Старый 01.10.2018, 13:27   #6
ledcom
Новичок
 

Регистрация: 16.11.2010
Сообщений: 23
Сказал(а) спасибо: 19
Поблагодарили 19 раз(а) в 8 сообщениях
ledcom скоро придёт к известностиledcom скоро придёт к известности
По умолчанию Cue-файл для варианта с допиской

Цитата:
FILE "Карнавал 84 - Концерт в Москве_отпр.wav" MP3
TITLE "1984, Концерт в Москве"
TRACK 01 AUDIO
TITLE "Неслучайно"
PERFORMER "Карнавал"
INDEX 01 00:07:58
TRACK 02 AUDIO
TITLE "Поверь в себя"
PERFORMER "Карнавал"
INDEX 01 03:51:69
TRACK 03 AUDIO
TITLE "Запасной игрок"
PERFORMER "Карнавал"
INDEX 01 08:48:04
TRACK 04 AUDIO
TITLE "Стоп мотор"
PERFORMER "Карнавал"
INDEX 01 14:49:50
TRACK 05 AUDIO
TITLE "Спасательный круг"
PERFORMER "Карнавал"
INDEX 01 20:44:55
TRACK 06 AUDIO
TITLE "Я вздрагиваю от холода"
PERFORMER "Карнавал"
INDEX 01 25:09:24
TRACK 07 AUDIO
TITLE "Представление группы"
PERFORMER "Карнавал"
INDEX 01 31:09:09
TRACK 08 AUDIO
TITLE "Тир"
PERFORMER "Карнавал"
INDEX 01 31:30:05
TRACK 09 AUDIO
TITLE "Чили"
PERFORMER "Карнавал"
INDEX 01 37:09:00
TRACK 10 AUDIO
TITLE "BONUS: Возвращайся солнце"
PERFORMER "Карнавал"
INDEX 01 41:26:20
Cue-файл для варианта с допиской. На мой субъективный вкус - очень хорошая копия.
ledcom вне форума   Ответить с цитированием
5 пользователя(ей) сказали cпасибо:
Вит70 (01.10.2018), Erg Noor (06.10.2018), Саша (beloborod) (01.10.2018), фёдор1969 (02.10.2018), Rocker 2015 (01.10.2018)
Старый 04.10.2018, 17:52   #7
подводник
Пользователь
 

Регистрация: 05.01.2016
Сообщений: 65
Сказал(а) спасибо: 263
Поблагодарили 60 раз(а) в 32 сообщениях
подводник как роза среди колючекподводник как роза среди колючекподводник как роза среди колючекподводник как роза среди колючек
По умолчанию

Друзья ,а как скачать cue-файл для варианта с допиской.
подводник вне форума   Ответить с цитированием
Старый 04.10.2018, 18:52   #8
Onyx97
Местный
 

Регистрация: 04.01.2016
Сообщений: 106
Сказал(а) спасибо: 164
Поблагодарили 85 раз(а) в 48 сообщениях
Onyx97 - очень-очень хороший человекOnyx97 - очень-очень хороший человекOnyx97 - очень-очень хороший человекOnyx97 - очень-очень хороший человекOnyx97 - очень-очень хороший человек
По умолчанию

подводник, надо текст скопировать в блокнот и сохранить как .CUE
Onyx97 вне форума   Ответить с цитированием
Ответ

Закладки

Опции темы
Опции просмотра

Ваши права в разделе
Вы не можете создавать новые темы
Вы не можете отвечать в темах
Вы не можете прикреплять вложения
Вы не можете редактировать свои сообщения

BB коды Вкл.
Смайлы Вкл.
[IMG] код Вкл.
HTML код Выкл.

Быстрый переход


Часовой пояс GMT, время: 06:51.


Powered by vBulletin® Version 3.8.2
Copyright ©2000 - 2018, Jelsoft Enterprises Ltd. Перевод: zCarot
Rambler's Top100 Республика Татарстан - Каталог сайтов