Все Тут Online
Все Тут Online
Новые сообщения
Все сообщения за последних 24 часа
Расширенный Поиск

   
Меню сайта:
Главная
Форум
Чат
- Online приложения:
- Игры
- Выбор стиля:
- FAQ
- Для начинающих

Вернуться   Все Тут Online > МАГНИТИЗДАТ (Оцифровки Кассет и Бобин) (lossless) > В гостях у Бориса 63 (Оцифровки с бобин и с кассет) > Шансон, Авторская песня и Фолк (Lossless)

Старый 03.06.2015, 12:05   #1
Борис 63
Модератор раздела оцифровок
 
Аватар для Борис 63
 

Регистрация: 01.02.2010
Адрес: СССР Москва
Сообщений: 14,162
Сказал(а) спасибо: 8,169
Поблагодарили 47,991 раз(а) в 7,606 сообщениях
Борис 63 репутация неоспоримаБорис 63 репутация неоспоримаБорис 63 репутация неоспоримаБорис 63 репутация неоспоримаБорис 63 репутация неоспоримаБорис 63 репутация неоспоримаБорис 63 репутация неоспоримаБорис 63 репутация неоспоримаБорис 63 репутация неоспоримаБорис 63 репутация неоспоримаБорис 63 репутация неоспорима
По умолчанию (24/96) Петр Лещенко ( катушка ) (lossless)





Пётр Лещенко.cue

ссылка

Скрытый текст (вы должны зарегистрироваться или войти под своим логином):
У вас нет прав чтобы видеть скрытый текст, содержащейся здесь.
__________________
Ccылка на тему: Как скачивать с Яндекс диска!

Чтобы быстро скачать чужой опубликованный файл, сохраните его на свой Диск. На вашем Диске файл окажется мгновенно, а свои файлы вы всегда можете скачать без ограничений.
Борис 63 вне форума   Ответить с цитированием
15 пользователя(ей) сказали cпасибо:
Д.Исакович (03.06.2015), Евгений80 (04.06.2015), Бакалавр (14.07.2015), Владимир 1733 (03.06.2015), Дмитрий (04.06.2015), andrushka (07.06.2015), дрон (04.06.2015), djpek (12.06.2015), DORKS41 (05.06.2015), Корф (30.07.2016), kopilovoleg (03.06.2015), Korvet (16.08.2016), redcaesar (05.06.2015), sdemin (21.05.2016), zitrus (04.06.2015)
Старый 04.06.2015, 02:18   #2
Евгений80
Местный
 
Аватар для Евгений80
 

Регистрация: 30.08.2014
Адрес: Дальний Восток
Сообщений: 1,818
Сказал(а) спасибо: 9,727
Поблагодарили 1,630 раз(а) в 694 сообщениях
Евгений80 репутация неоспоримаЕвгений80 репутация неоспоримаЕвгений80 репутация неоспоримаЕвгений80 репутация неоспоримаЕвгений80 репутация неоспоримаЕвгений80 репутация неоспоримаЕвгений80 репутация неоспоримаЕвгений80 репутация неоспоримаЕвгений80 репутация неоспоримаЕвгений80 репутация неоспоримаЕвгений80 репутация неоспорима
По умолчанию

Спасибо Борис

Код:
REM COMMENT "Оцифровка - Борис 63"
PERFORMER "Петр Лещенко Катушка-первая часть"
TITLE "Петр Лещенко"
REM DATE ?
REM GENRE "Ретро"
FILE "Лещенко.flac" WAVE
  TRACK 01 AUDIO
TITLE "Жизнь цыганская"
    INDEX 01 00:00:00
  TRACK 02 AUDIO
TITLE "Вернись-Танго"
    INDEX 01 03:06:60
  TRACK 03 AUDIO
TITLE "Ты и эта гитара"
    INDEX 01 05:58:71
  TRACK 04 AUDIO
TITLE "Признайся мне"
    INDEX 01 08:51:12
  TRACK 05 AUDIO
TITLE "Бессарабианка"
    INDEX 01 12:06:44
  TRACK 06 AUDIO
TITLE "Всё что было"
    INDEX 01 14:35:74
  TRACK 07 AUDIO
TITLE "Скажите почему?"
    INDEX 01 17:20:13
  TRACK 08 AUDIO
TITLE "Моя Марусечка"
    INDEX 01 20:12:59
  TRACK 09 AUDIO
TITLE "Синяя рапсодия"
    INDEX 01 23:07:01
  TRACK 10 AUDIO
TITLE "Льётся песня"
    INDEX 01 25:58:48
  TRACK 11 AUDIO
TITLE "Эй,друг гитара"
    INDEX 01 29:13:46
  TRACK 12 AUDIO
TITLE "Чёрные глаза-Танго"
    INDEX 01 31:57:40
  TRACK 13 AUDIO
TITLE "Забыть тебя"
    INDEX 01 35:02:61
  TRACK 14 AUDIO
TITLE "Татьяна"
    INDEX 01 38:04:41
  TRACK 15 AUDIO
TITLE "Что мне горе"
    INDEX 01 41:07:44
  TRACK 16 AUDIO
TITLE "Допись-Обрыв"
    INDEX 01 44:02:51
__________________
FAQ для начинающих: (А КАК????) Жмём на ссылку и читаем ---> http://vsetutonline.com/forum/forumdisplay.php?f=664

Ccылка на тему: Как скачивать с Яндекс диска!

"У каждой ошибки есть имя и фамилия" И. Сталин(с)

Выбирай свой путь в жизни сам,свобода и музыка, это наше всё ... !!!
Евгений80 вне форума   Ответить с цитированием
6 пользователя(ей) сказали cпасибо:
Владимир 1733 (05.06.2015), Дмитрий (04.06.2015), Борис 63 (04.06.2015), andrushka (07.06.2015), sdemin (21.05.2016), zitrus (04.06.2015)
Старый 04.06.2015, 02:23   #3
Евгений80
Местный
 
Аватар для Евгений80
 

Регистрация: 30.08.2014
Адрес: Дальний Восток
Сообщений: 1,818
Сказал(а) спасибо: 9,727
Поблагодарили 1,630 раз(а) в 694 сообщениях
Евгений80 репутация неоспоримаЕвгений80 репутация неоспоримаЕвгений80 репутация неоспоримаЕвгений80 репутация неоспоримаЕвгений80 репутация неоспоримаЕвгений80 репутация неоспоримаЕвгений80 репутация неоспоримаЕвгений80 репутация неоспоримаЕвгений80 репутация неоспоримаЕвгений80 репутация неоспоримаЕвгений80 репутация неоспорима
По умолчанию

Мне показалось или присутствует ещё что-то в записи помимо Лещенко
__________________
FAQ для начинающих: (А КАК????) Жмём на ссылку и читаем ---> http://vsetutonline.com/forum/forumdisplay.php?f=664

Ccылка на тему: Как скачивать с Яндекс диска!

"У каждой ошибки есть имя и фамилия" И. Сталин(с)

Выбирай свой путь в жизни сам,свобода и музыка, это наше всё ... !!!
Евгений80 вне форума   Ответить с цитированием
Старый 04.06.2015, 20:12   #4
georgy50
Гость
 

Сообщений: n/a
По умолчанию

Знакомый почерк!
Это записал Коля Рыжков в Ленинграде!
  Ответить с цитированием
Старый 05.06.2015, 07:06   #5
Виктор из Клина
Местный
 

Регистрация: 30.01.2014
Адрес: Московская обл., г.Клин
Сообщений: 261
Сказал(а) спасибо: 233
Поблагодарили 255 раз(а) в 100 сообщениях
Виктор из Клина за этого человека можно гордитсяВиктор из Клина за этого человека можно гордитсяВиктор из Клина за этого человека можно гордитсяВиктор из Клина за этого человека можно гордитсяВиктор из Клина за этого человека можно гордитсяВиктор из Клина за этого человека можно гордитсяВиктор из Клина за этого человека можно гордитсяВиктор из Клина за этого человека можно гордитсяВиктор из Клина за этого человека можно гордится
По умолчанию

Цитата:
Сообщение от georgy50 Посмотреть сообщение
Знакомый почерк!
Это записал Коля Рыжков в Ленинграде!
Так эти катушки, что я Боре подарил, пришли ко мне как раз из Питера.
__________________
Ищу цветные и эксклюзивные катушки для коллекции
Виктор из Клина вне форума   Ответить с цитированием
Старый 05.06.2015, 09:36   #6
georgy50
Гость
 

Сообщений: n/a
Восклицание

Цитата:
Сообщение от Виктор из Клина Посмотреть сообщение
Так эти катушки, что я Боре подарил, пришли ко мне как раз из Питера.
Я дружил с "Великим Косарём" до его последнего дня ....
Поищите в интернете:
Николай Гаврилович Рыжков
  Ответить с цитированием
Ответ

Закладки

Опции темы
Опции просмотра

Ваши права в разделе
Вы не можете создавать новые темы
Вы не можете отвечать в темах
Вы не можете прикреплять вложения
Вы не можете редактировать свои сообщения

BB коды Вкл.
Смайлы Вкл.
[IMG] код Вкл.
HTML код Выкл.

Быстрый переход


Часовой пояс GMT, время: 09:16.


Powered by vBulletin® Version 3.8.2
Copyright ©2000 - 2019, Jelsoft Enterprises Ltd. Перевод: zCarot
Rambler's Top100 Республика Татарстан - Каталог сайтов