Все Тут Online
Все Тут Online
Новые сообщения
Все сообщения за последних 24 часа
Расширенный Поиск

   
Меню сайта:
Главная
Форум
Чат
- Online приложения:
- Игры
- Выбор стиля:
- FAQ
- Для начинающих

Вернуться   Все Тут Online > CD (Компакт диски) Lossless - МУЗЫКА БЕЗ ПОТЕРИ КАЧЕСТВА > ПОП МУЗЫКА, Eurodance, Disco (Lossless) > Отечественная Поп музыка (lossless)

Ответ
 
Опции темы Опции просмотра
Старый 22.08.2009, 09:12   #1
Tomas
вечная память
 
Аватар для Tomas
 

Регистрация: 19.11.2008
Адрес: СССР
Сообщений: 8,569
Сказал(а) спасибо: 1,498
Поблагодарили 6,248 раз(а) в 2,121 сообщениях
Tomas репутация неоспоримаTomas репутация неоспоримаTomas репутация неоспоримаTomas репутация неоспоримаTomas репутация неоспоримаTomas репутация неоспоримаTomas репутация неоспоримаTomas репутация неоспоримаTomas репутация неоспоримаTomas репутация неоспоримаTomas репутация неоспорима
По умолчанию Фристайл - Дискография [Lossless]

группа Фристайл

№1. Прощай навеки, последняя любовь (1988) (переиздание jeff 2002):
http://yadi.sk/d/ddiqh6lW0U9cE

№2. Жёлтые розы (1989): http://yadi.sk/d/SzOD5SCm0U9cS

№3. Белая акация (1990) (переиздание jeff 2002): http://yadi.sk/d/7icqy6T50U9cq

№4. Больно мне, больно! (1991): http://yadi.sk/d/THE6dVXR0U9d6

№5. Грош цена тебе (1992) (издание М.Фридмана в Германии 1995): http://yadi.sk/d/R8mCa0ob0U9ds

№6. Измученное сердце (1993) (издание от "Русского снабжения" 1994):
http://yadi.sk/d/UQthtXX_0U9f2

№7. Ах, какая женщина... (1995): http://yadi.sk/d/sF1lYf2_0U9fm

№7 (2). Ах, какая женщина... (1995) (переиздание jeff 1997): http://yadi.sk/d/kFuvkVo00U9gG

№8. Кораблик любви (1997) http://yadi.sk/d/XaEgEEc60U9gc

№9. Звёздный дождь (2001) http://yadi.sk/d/JMeRIkEE0U9h6

№10. Любовное настроение (2006) http://yadi.sk/d/EiGD40_F0U9hw


Cкачать:





"Получите!" - 1989 г. (в несколько сокращённом виде издан на CD под названием "Прощай навеки, последняя любовь")
"Получите! – дубль 2" - 1989 г. (в несколько сокращённом виде издан на CD под названием "Жёлтые розы")
"Получите! – дубль 3" - 1990 г.(в несколько сокращённом виде издан на CD под названием "Белая акация"; кроме того, лучшие песни из первых трёх альбомов вышли на LP "Получите – раз, два, три!)
"Фристайл-4" - 1991 г.(издан на CD под названием "Больно мне, больно" и на LP под названием "Четвёртая серия")
"Получите! – дубль 5" - 1992 г. (издан на CD под названием "Грош цена тебе")
"Измученное сердце" - 1994 г. (в ФРГ был издан одноимённый CD, а в России он вышел под названием "Цветёт калина")
"Ах, какая женщина" - 1995 г.(кассета и CD)
"Кораблик любви" - 1997 г. (кассета и CD)
"Звёздный дождь" - 2001 г. (кассета и CD)


Сайт группы Фристайл
Tomas вне форума   Ответить с цитированием
16 пользователя(ей) сказали cпасибо:
Евгений80 (08.09.2015), Валерий0207 (15.07.2019), ВасяПуп (06.04.2019), Бархан (08.06.2018), Александр_ХХХ (06.06.2018), Виктор53 (24.01.2020), Dmt (30.04.2019), параллепипед (02.03.2016), igor7117 (30.05.2016), ksenomorf808 (03.06.2020), makul62 (20.02.2020), mlkn658776jvg (14.10.2015), sKOLOSD (30.03.2015), sprut22 (14.12.2013), sserhiy (26.11.2016), розенбом (07.12.2016)
Старый 22.08.2009, 09:46   #2
Tomas
вечная память
 
Аватар для Tomas
 

Регистрация: 19.11.2008
Адрес: СССР
Сообщений: 8,569
Сказал(а) спасибо: 1,498
Поблагодарили 6,248 раз(а) в 2,121 сообщениях
Tomas репутация неоспоримаTomas репутация неоспоримаTomas репутация неоспоримаTomas репутация неоспоримаTomas репутация неоспоримаTomas репутация неоспоримаTomas репутация неоспоримаTomas репутация неоспоримаTomas репутация неоспоримаTomas репутация неоспоримаTomas репутация неоспорима
По умолчанию Фристайл-2 - Жёлтые розы 1995 (Lossless)



Исполнитель Фристайл
Альбом Жёлтые розы 1995
Жанр Поп
Содержание
01.Жёлтые розы
02.Сирень
03.Я тебе не верю
04.Любимая
05.О чёрных и красных розах
06.Ночь
07.Милая, нежная
08.Мне невозможно тебя потерять
09.Холодный снег
10.Ты больше не звони

Добавлена опция для восстановления 3%
EAC, FLAC, CUE, LOG, Covers
Сканы в архиве




Ссылка и пароль:
1
2

Tomas

Цитата:
Exact Audio Copy V0.99 prebeta 5 from 4. May 2009

Отчёт EAC об извлечении, выполненном 22. августа 2009, 11:37

Фристайл / Жёлтые розы

Дисковод: TSSTcorpCDDVDW SH-S223F Adapter: 2 ID: 0

Режим чтения : Достоверность
Использование точного потока : Да
Отключение кэша аудио : Да
Использование указателей C2 : Нет

Коррекция смещения при чтении : 6
Способность читать области Lead-in и Lead-out : Нет
Заполнение пропущенных сэмплов тишиной : Да
Удаление блоков с тишиной в начале и конце : Нет
При вычислениях CRC использовались нулевые сэмплы : Да
Интерфейс : Встроенный Win32-интерфейс для Win NT/2000

Выходной формат : Внутренние WAV-операции
Формат сэмплов : 44.100 Гц; 16 бит; стерео


TOC извлечённого CD

Трек | Старт | Длительность | Начальный сектор | Конечный сектор
---------------------------------------------------------------------
1 | 0:00.25 | 4:22.20 | 25 | 19694
2 | 4:22.45 | 4:06.42 | 19695 | 38186
3 | 8:29.12 | 4:30.28 | 38187 | 58464
4 | 12:59.40 | 4:09.72 | 58465 | 77211
5 | 17:09.37 | 4:21.33 | 77212 | 96819
6 | 21:30.70 | 4:34.25 | 96820 | 117394
7 | 26:05.20 | 4:09.42 | 117395 | 136111
8 | 30:14.62 | 4:17.70 | 136112 | 155456
9 | 34:32.57 | 4:27.35 | 155457 | 175516
10 | 39:00.17 | 4:22.33 | 175517 | 195199


Характеристики диапазона извлечения и сообщения об ошибках

Выбранный диапазон

Имя файла C:\Documents and Settings\Vladimir\Рабочий стол\Фристайл-2 - Жёлтые розы 1995\Фристайл - Жёлтые розы.wav

Пиковый уровень 100.0 %
Качество диапазона 100.0 %
CRC копии 21091F6C
Копирование... OK

Ошибок не произошло

Конец отчёта
Tomas вне форума   Ответить с цитированием
Старый 23.08.2009, 09:39   #3
Tomas
вечная память
 
Аватар для Tomas
 

Регистрация: 19.11.2008
Адрес: СССР
Сообщений: 8,569
Сказал(а) спасибо: 1,498
Поблагодарили 6,248 раз(а) в 2,121 сообщениях
Tomas репутация неоспоримаTomas репутация неоспоримаTomas репутация неоспоримаTomas репутация неоспоримаTomas репутация неоспоримаTomas репутация неоспоримаTomas репутация неоспоримаTomas репутация неоспоримаTomas репутация неоспоримаTomas репутация неоспоримаTomas репутация неоспорима
По умолчанию Фристайл-3 - Белая акация 1995 (Lossless)



Исполнитель Фристайл
Альбом Фристайл-3 - Белая акация 1995
Жанр Поп
Содержание
01.Догорает свеча
02.Белая акация
03.Завтра
04.Как птичья стая
05.Старый дом
06.Напиши
07.Моя первая любовь
08.Рыжая девчонка
09.Восточная песня
10.Я всё ещё люблю тебя
11.Не забудь
Рыжая девчонка-ремикс 1995г.
Вокал-Сергей Дубровин


Добавлена опция для восстановления 3%
EAC, FLAC, CUE, LOG, Covers
Сканы в архиве




Ссылка и пароль:
1
2

Tomas

Цитата:
Exact Audio Copy V0.99 prebeta 5 from 4. May 2009

Отчёт EAC об извлечении, выполненном 23. августа 2009, 10:06

Freestyle / Blanching acacia

Дисковод: TSSTcorpCDDVDW SH-S223F Adapter: 2 ID: 0

Режим чтения : Достоверность
Использование точного потока : Да
Отключение кэша аудио : Да
Использование указателей C2 : Нет

Коррекция смещения при чтении : 6
Способность читать области Lead-in и Lead-out : Нет
Заполнение пропущенных сэмплов тишиной : Да
Удаление блоков с тишиной в начале и конце : Нет
При вычислениях CRC использовались нулевые сэмплы : Да
Интерфейс : Встроенный Win32-интерфейс для Win NT/2000

Выходной формат : Внутренние WAV-операции
Формат сэмплов : 44.100 Гц; 16 бит; стерео


TOC извлечённого CD

Трек | Старт | Длительность | Начальный сектор | Конечный сектор
---------------------------------------------------------------------
1 | 0:00.28 | 4:30.37 | 28 | 20314
2 | 4:30.65 | 4:20.50 | 20315 | 39864
3 | 8:51.40 | 4:21.65 | 39865 | 59504
4 | 13:13.30 | 4:14.58 | 59505 | 78612
5 | 17:28.13 | 4:02.47 | 78613 | 96809
6 | 21:30.60 | 3:50.15 | 96810 | 114074
7 | 25:21.00 | 4:29.25 | 114075 | 134274
8 | 29:50.25 | 4:22.40 | 134275 | 153964
9 | 34:12.65 | 3:28.30 | 153965 | 169594
10 | 37:41.20 | 4:29.55 | 169595 | 189824
11 | 42:11.00 | 4:23.60 | 189825 | 209609


Характеристики диапазона извлечения и сообщения об ошибках

Выбранный диапазон

Имя файла C:\Documents and Settings\Vladimir\Рабочий стол\Фристайл-3 - Белая акация 1995\Freestyle - Blanching acacia.wav

Пиковый уровень 89.1 %
Качество диапазона 100.0 %
CRC копии 23E54A0E
Копирование... OK

Ошибок не произошло

Конец отчёта
Tomas вне форума   Ответить с цитированием
Старый 06.09.2009, 21:31   #4
Tomas
вечная память
 
Аватар для Tomas
 

Регистрация: 19.11.2008
Адрес: СССР
Сообщений: 8,569
Сказал(а) спасибо: 1,498
Поблагодарили 6,248 раз(а) в 2,121 сообщениях
Tomas репутация неоспоримаTomas репутация неоспоримаTomas репутация неоспоримаTomas репутация неоспоримаTomas репутация неоспоримаTomas репутация неоспоримаTomas репутация неоспоримаTomas репутация неоспоримаTomas репутация неоспоримаTomas репутация неоспоримаTomas репутация неоспорима
По умолчанию Фристайл - Кораблик любви 1997 (Lossless)



Исполнитель Фристайл
Альбом Кораблик любви 1997
Жанр Поп
Содержание
01.Фонари
02.Старый клён
03.Кораблик любви
04.Белая архидея
05.С днём рождения, мама
06.Улетай, самолёт
07.Орёл или решка
08.Черёмуховый дым
09.Говорила мама мне
10.Белая сирень
11.В краю прозрачных роз
12.Головокружение любви
13.Подруга ночь
14.Берег отчайния

Добавлена опция для восстановления 3%
EAC, FLAC, CUE, LOG, Covers
Сканы в архиве




Ссылка и пароль:
http://rapidshare.com/files/27650425...T-97.part1.rar
http://rapidshare.com/files/27651626...T-97.part2.rar
http://rapidshare.com/files/27651811...T-97.part3.rar

Tomas

Цитата:
Exact Audio Copy V0.99 prebeta 5 from 4. May 2009

Отчёт EAC об извлечении, выполненном 6. сентября 2009, 20:05

Фристайл / Кораблик любви

Дисковод: TSSTcorpCDDVDW SH-S223F Adapter: 2 ID: 0

Режим чтения : Достоверность
Использование точного потока : Да
Отключение кэша аудио : Да
Использование указателей C2 : Нет

Коррекция смещения при чтении : 6
Способность читать области Lead-in и Lead-out : Нет
Заполнение пропущенных сэмплов тишиной : Да
Удаление блоков с тишиной в начале и конце : Нет
При вычислениях CRC использовались нулевые сэмплы : Да
Интерфейс : Встроенный Win32-интерфейс для Win NT/2000

Выходной формат : Внутренние WAV-операции
Формат сэмплов : 44.100 Гц; 16 бит; стерео


TOC извлечённого CD

Трек | Старт | Длительность | Начальный сектор | Конечный сектор
---------------------------------------------------------------------
1 | 0:00.30 | 4:18.59 | 30 | 19438
2 | 4:19.14 | 3:39.67 | 19439 | 35930
3 | 7:59.06 | 4:58.32 | 35931 | 58312
4 | 12:57.38 | 4:16.22 | 58313 | 77534
5 | 17:13.60 | 5:00.69 | 77535 | 100103
6 | 22:14.54 | 4:30.15 | 100104 | 120368
7 | 26:44.69 | 3:35.58 | 120369 | 136551
8 | 30:20.52 | 3:40.34 | 136552 | 153085
9 | 34:01.11 | 3:57.40 | 153086 | 170900
10 | 37:58.51 | 4:16.33 | 170901 | 190133
11 | 42:15.09 | 5:00.45 | 190134 | 212678
12 | 47:15.54 | 4:13.10 | 212679 | 231663
13 | 51:28.64 | 3:58.39 | 231664 | 249552
14 | 55:27.28 | 4:47.38 | 249553 | 271115


Характеристики диапазона извлечения и сообщения об ошибках

Выбранный диапазон

Имя файла C:\Documents and Settings\Vladimir\Рабочий стол\Фристайл - Кораблик любви 1997\Фристайл - Кораблик любви.wav

Пиковый уровень 86.4 %
Качество диапазона 100.0 %
CRC копии DAFEA9E6
Копирование... OK

Ошибок не произошло

Конец отчёта
Tomas вне форума   Ответить с цитированием
Пользователь сказал cпасибо:
маст (11.01.2017)
Старый 10.09.2009, 09:57   #5
Tomas
вечная память
 
Аватар для Tomas
 

Регистрация: 19.11.2008
Адрес: СССР
Сообщений: 8,569
Сказал(а) спасибо: 1,498
Поблагодарили 6,248 раз(а) в 2,121 сообщениях
Tomas репутация неоспоримаTomas репутация неоспоримаTomas репутация неоспоримаTomas репутация неоспоримаTomas репутация неоспоримаTomas репутация неоспоримаTomas репутация неоспоримаTomas репутация неоспоримаTomas репутация неоспоримаTomas репутация неоспоримаTomas репутация неоспорима
По умолчанию Фристайл - Звёздный дождь 2001 (Lossless)



Исполнитель Фристайл
Альбом Звёздный дождь 2001
Жанр Поп
Содержание
01.Ламбада-Бамбина
02.Звёздный дождь
03.Он никогда не растает
04.Crazy Baby (эпизод 1)
05.Свет зори
06.А на небе луна
07.Ты ни в чём не виноват
08.Скажи мне "ДА"
09.Теперь попробуй сам
10.Дай мне быть с тобой
11.Край неземных чудес (Там, где-то там)
12.Дождь стучит по крышам
13.Crazy Baby (эпизод 2)

Добавлена опция для восстановления 3%
EAC, FLAC, CUE, LOG, Covers
Сканы в архиве




Ссылка и пароль:
http://rapidshare.com/files/278026881/FRIST.part1.rar
http://rapidshare.com/files/278036470/FRIST.part2.rar
http://rapidshare.com/files/278038035/FRIST.part3.rar

Tomas

Цитата:
Exact Audio Copy V0.99 prebeta 5 from 4. May 2009

Отчёт EAC об извлечении, выполненном 10. сентября 2009, 11:03

Fristyle / Swцsdnyj Doschd

Дисковод: TSSTcorpCDDVDW SH-S223F Adapter: 2 ID: 0

Режим чтения : Достоверность
Использование точного потока : Да
Отключение кэша аудио : Да
Использование указателей C2 : Нет

Коррекция смещения при чтении : 6
Способность читать области Lead-in и Lead-out : Нет
Заполнение пропущенных сэмплов тишиной : Да
Удаление блоков с тишиной в начале и конце : Нет
При вычислениях CRC использовались нулевые сэмплы : Да
Интерфейс : Встроенный Win32-интерфейс для Win NT/2000

Выходной формат : Внутренние WAV-операции
Формат сэмплов : 44.100 Гц; 16 бит; стерео


TOC извлечённого CD

Трек | Старт | Длительность | Начальный сектор | Конечный сектор
---------------------------------------------------------------------
1 | 0:00.00 | 3:52.42 | 0 | 17441
2 | 3:52.42 | 4:19.52 | 17442 | 36918
3 | 8:12.19 | 4:08.41 | 36919 | 55559
4 | 12:20.60 | 4:36.59 | 55560 | 76318
5 | 16:57.44 | 4:30.07 | 76319 | 96575
6 | 21:27.51 | 4:27.09 | 96576 | 116609
7 | 25:54.60 | 4:09.22 | 116610 | 135306
8 | 30:04.07 | 4:27.37 | 135307 | 155368
9 | 34:31.44 | 4:50.67 | 155369 | 177185
10 | 39:22.36 | 3:53.52 | 177186 | 194712
11 | 43:16.13 | 4:21.13 | 194713 | 214300
12 | 47:37.26 | 4:14.37 | 214301 | 233387
13 | 51:51.63 | 4:36.60 | 233388 | 254147


Характеристики диапазона извлечения и сообщения об ошибках

Выбранный диапазон

Имя файла C:\Documents and Settings\Vladimir\Рабочий стол\Фристайл - Звёздный дождь 2001\Fristyle - Swцsdnyj Doschd.wav

Пиковый уровень 99.9 %
Качество диапазона 100.0 %
CRC копии 2D7F9940
Копирование... OK

Ошибок не произошло

Конец отчёта
Tomas вне форума   Ответить с цитированием
Старый 20.09.2009, 17:42   #6
Tomas
вечная память
 
Аватар для Tomas
 

Регистрация: 19.11.2008
Адрес: СССР
Сообщений: 8,569
Сказал(а) спасибо: 1,498
Поблагодарили 6,248 раз(а) в 2,121 сообщениях
Tomas репутация неоспоримаTomas репутация неоспоримаTomas репутация неоспоримаTomas репутация неоспоримаTomas репутация неоспоримаTomas репутация неоспоримаTomas репутация неоспоримаTomas репутация неоспоримаTomas репутация неоспоримаTomas репутация неоспоримаTomas репутация неоспорима
По умолчанию Фристайл - Больно мне, больно 1995 [4 альбом] (Lossless)



Исполнитель Фристайл
Альбом Больно мне, больно 1995 [4 альбом]
Жанр Поп
Содержание
01.Метелица
02.Бог тебя накажет
03.Прости меня, малыш
04.Больно, мне больно!
05.Вишнёвый сад
06.Тёплый летний дождь
07.Скатертью дорога
08.Фиалковый букет
09.Всё, как у всех
10.Ты не пой, соловей
11.Обидно мне до слёз
12.Ьилый незнакомец
13.Бог с тобой
Продюсер-Анатолий Розанов
Запись студии "Фристайл", 1991 г.

Добавлена опция для восстановления 3%
EAC, FLAC, CUE, LOG, Covers
Сканы в архиве




Ссылка и пароль:
http://rapidshare.com/files/282662240/FRIST-4.part1.rar
http://rapidshare.com/files/282670457/FRIST-4.part2.rar
http://rapidshare.com/files/282677367/FRIST-4.part3.rar
http://rapidshare.com/files/282682619/FRIST-4.part4.rar

Tomas

Цитата:
Exact Audio Copy V0.99 prebeta 5 from 4. May 2009

Отчёт EAC об извлечении, выполненном 20. сентября 2009, 18:23

Freestyle / Bolno me, bolno

Дисковод: TSSTcorpCDDVDW SH-S223F Adapter: 2 ID: 0

Режим чтения : Достоверность
Использование точного потока : Да
Отключение кэша аудио : Да
Использование указателей C2 : Нет

Коррекция смещения при чтении : 6
Способность читать области Lead-in и Lead-out : Нет
Заполнение пропущенных сэмплов тишиной : Да
Удаление блоков с тишиной в начале и конце : Нет
При вычислениях CRC использовались нулевые сэмплы : Да
Интерфейс : Встроенный Win32-интерфейс для Win NT/2000

Выходной формат : Внутренние WAV-операции
Формат сэмплов : 44.100 Гц; 16 бит; стерео


TOC извлечённого CD

Трек | Старт | Длительность | Начальный сектор | Конечный сектор
---------------------------------------------------------------------
1 | 0:00.33 | 3:54.52 | 33 | 17634
2 | 3:55.10 | 4:09.13 | 17635 | 36322
3 | 8:04.23 | 4:29.35 | 36323 | 56532
4 | 12:33.58 | 4:34.27 | 56533 | 77109
5 | 17:08.10 | 4:00.13 | 77110 | 95122
6 | 21:08.23 | 3:59.27 | 95123 | 113074
7 | 25:07.50 | 4:52.10 | 113075 | 134984
8 | 29:59.60 | 3:55.70 | 134985 | 152679
9 | 33:55.55 | 4:57.53 | 152680 | 175007
10 | 38:53.33 | 4:10.07 | 175008 | 193764
11 | 43:03.40 | 3:54.10 | 193765 | 211324
12 | 46:57.50 | 3:53.70 | 211325 | 228869
13 | 50:51.45 | 4:35.10 | 228870 | 249504


Характеристики диапазона извлечения и сообщения об ошибках

Выбранный диапазон

Имя файла C:\Documents and Settings\Vladimir\Рабочий стол\Фристайл - Больно мне, больно 1995\Freestyle - Bolno me, bolno.wav

Пиковый уровень 100.0 %
Качество диапазона 100.0 %
CRC копии FF46FB2C
Копирование... OK

Ошибок не произошло

Конец отчёта
Tomas вне форума   Ответить с цитированием
Старый 22.09.2009, 21:31   #7
Tomas
вечная память
 
Аватар для Tomas
 

Регистрация: 19.11.2008
Адрес: СССР
Сообщений: 8,569
Сказал(а) спасибо: 1,498
Поблагодарили 6,248 раз(а) в 2,121 сообщениях
Tomas репутация неоспоримаTomas репутация неоспоримаTomas репутация неоспоримаTomas репутация неоспоримаTomas репутация неоспоримаTomas репутация неоспоримаTomas репутация неоспоримаTomas репутация неоспоримаTomas репутация неоспоримаTomas репутация неоспоримаTomas репутация неоспорима
По умолчанию Фристайл - Ты не в чём не виноват 2001 (Lossless)



Исполнитель Фристайл
Альбом Ты не в чём не виноват 2001
Жанр Поп
Содержание
01.Ты не в чём не виноват
02.Скажи мне "ДА"
03.Ах какая женщина
04.Фонари
05.Кораблик любви
06.Белая сирень
07.Говорила мама мне
08.В краю прозрачных роз
09.Цветёт калина
10.Ну кагда же ты влюбишься
11.Мой милый мальчик
12.Ты меня не любишь
13.Улетай, самолёт
14.Белая сирень
15.Черёмуховый дым
16.Головокружение любви
17.Берег отчайния
18.С днём рождения мама!

Добавлена опция для восстановления 3%
EAC, FLAC, CUE, LOG, Covers
Cканы в архиве




Ссылка и пароль:
http://rapidshare.com/files/28349377...T-01.part1.rar
http://rapidshare.com/files/28350741...T-01.part2.rar
http://rapidshare.com/files/28351593...T-01.part3.rar
http://rapidshare.com/files/28352491...T-01.part4.rar
http://rapidshare.com/files/28353603...T-01.part5.rar
http://rapidshare.com/files/28355643...T-01.part6.rar

Tomas

Цитата:
Exact Audio Copy V0.99 prebeta 5 from 4. May 2009

Отчёт EAC об извлечении, выполненном 22. сентября 2009, 15:14

Фристайл / Ты не в чём не виноват

Дисковод: TSSTcorpCDDVDW SH-S223F Adapter: 2 ID: 0

Режим чтения : Достоверность
Использование точного потока : Да
Отключение кэша аудио : Да
Использование указателей C2 : Нет

Коррекция смещения при чтении : 6
Способность читать области Lead-in и Lead-out : Нет
Заполнение пропущенных сэмплов тишиной : Да
Удаление блоков с тишиной в начале и конце : Нет
При вычислениях CRC использовались нулевые сэмплы : Да
Интерфейс : Встроенный Win32-интерфейс для Win NT/2000

Выходной формат : Внутренние WAV-операции
Формат сэмплов : 44.100 Гц; 16 бит; стерео


TOC извлечённого CD

Трек | Старт | Длительность | Начальный сектор | Конечный сектор
---------------------------------------------------------------------
1 | 0:00.00 | 4:09.18 | 0 | 18692
2 | 4:09.18 | 4:27.57 | 18693 | 38774
3 | 8:37.00 | 5:09.16 | 38775 | 61965
4 | 13:46.16 | 4:15.45 | 61966 | 81135
5 | 18:01.61 | 4:59.21 | 81136 | 103581
6 | 23:01.07 | 3:33.54 | 103582 | 119610
7 | 26:34.61 | 3:59.46 | 119611 | 137581
8 | 30:34.32 | 4:17.08 | 137582 | 156864
9 | 34:51.40 | 4:20.32 | 156865 | 176396
10 | 39:11.72 | 3:42.68 | 176397 | 193114
11 | 42:54.65 | 3:54.00 | 193115 | 210664
12 | 46:48.65 | 4:07.36 | 210665 | 229225
13 | 50:56.26 | 4:33.68 | 229226 | 249768
14 | 55:30.19 | 3:35.72 | 249769 | 265965
15 | 59:06.16 | 3:42.25 | 265966 | 282640
16 | 62:48.41 | 5:01.29 | 282641 | 305244
17 | 67:49.70 | 4:50.00 | 305245 | 326994
18 | 72:39.70 | 5:02.45 | 326995 | 349689


Характеристики диапазона извлечения и сообщения об ошибках

Выбранный диапазон

Имя файла C:\Documents and Settings\Vladimir\Рабочий стол\Фристайл - Ты не в чём не виноват 2001\Фристайл - Ты не в чём не виноват.wav

Пиковый уровень 86.3 %
Качество диапазона 99.9 %
CRC копии E7C5D430
Копирование... OK

Ошибок не произошло

Конец отчёта
Tomas вне форума   Ответить с цитированием
Старый 13.10.2009, 18:40   #8
Tomas
вечная память
 
Аватар для Tomas
 

Регистрация: 19.11.2008
Адрес: СССР
Сообщений: 8,569
Сказал(а) спасибо: 1,498
Поблагодарили 6,248 раз(а) в 2,121 сообщениях
Tomas репутация неоспоримаTomas репутация неоспоримаTomas репутация неоспоримаTomas репутация неоспоримаTomas репутация неоспоримаTomas репутация неоспоримаTomas репутация неоспоримаTomas репутация неоспоримаTomas репутация неоспоримаTomas репутация неоспоримаTomas репутация неоспорима
По умолчанию Фристайл - Ах, какая женщина 1995 (Lossless)



Исполнитель Фристайл
Альбом Ах, какая женщина 1995
Жанр Поп
Содержание
01.Ах, какая женщина...
02.Три сосны
03.Букет бумажных роз
04.Целуй меня горячей
05.До свадьбы заживёт
06.Пять тюльпанов
07.Ещё вчера
08.Не говори мне "прощай"
09.Наша первая любовь
10.Марина
11.Зачем, зачем
12.Первый снег
13.Белая берёза

Добавлена опция для восстановления 3%
EAC, FLAC, CUE, LOG, Covers
Сканы в архиве




Ссылка и пароль:
Скрытый текст (вы должны войти под своим логином или зарегистрироваться и иметь 1 сообщение(ий)):
У вас нет прав чтобы видеть скрытый текст, содержащейся здесь.


Tomas вне форума   Ответить с цитированием
Старый 24.11.2009, 06:45   #9
Tomas
вечная память
 
Аватар для Tomas
 

Регистрация: 19.11.2008
Адрес: СССР
Сообщений: 8,569
Сказал(а) спасибо: 1,498
Поблагодарили 6,248 раз(а) в 2,121 сообщениях
Tomas репутация неоспоримаTomas репутация неоспоримаTomas репутация неоспоримаTomas репутация неоспоримаTomas репутация неоспоримаTomas репутация неоспоримаTomas репутация неоспоримаTomas репутация неоспоримаTomas репутация неоспоримаTomas репутация неоспоримаTomas репутация неоспорима
По умолчанию Фристайл - Грош Цена Тебе 1992 (Lossless)



Исполнитель Фристайл
Альбом Грош Цена Тебе 1992
Жанр Поп
Содержание
01. Грош Цена Тебе
02. День Рождения
03. Падает Снег
04. Последняя Ночь
05. Мальчишка Из Детства
06. Злая Доля
07. Соседка
08. Девочка - Девчоночка
09. Будь Счастлив, Дорогой
10. Крутой
11. Поздно, Рыдай-Не Рыдай
12. Буду Я Тебя Любить
13. Мама, Мама
14. Черемуха
15. Среди Зимы

Добавлена опция для восстановления 35
EAC, FLAC, CUE, LOG, Poster




Ссылка и пароль:
Скрытый текст (вы должны войти под своим логином или зарегистрироваться и иметь 1 сообщение(ий)):
У вас нет прав чтобы видеть скрытый текст, содержащейся здесь.


Цитата:
Exact Audio Copy V0.99 prebeta 5 from 4. May 2009

Отчёт EAC об извлечении, выполненном 24. ноября 2009, 8:27

Фристайл / Грош Цена Тебе

Дисковод: TSSTcorpCDDVDW SH-S223F Adapter: 2 ID: 0

Режим чтения : Достоверность
Использование точного потока : Да
Отключение кэша аудио : Да
Использование указателей C2 : Нет

Коррекция смещения при чтении : 6
Способность читать области Lead-in и Lead-out : Нет
Заполнение пропущенных сэмплов тишиной : Да
Удаление блоков с тишиной в начале и конце : Нет
При вычислениях CRC использовались нулевые сэмплы : Да
Интерфейс : Встроенный Win32-интерфейс для Win NT/2000

Выходной формат : Внутренние WAV-операции
Формат сэмплов : 44.100 Гц; 16 бит; стерео


TOC извлечённого CD

Трек | Старт | Длительность | Начальный сектор | Конечный сектор
---------------------------------------------------------------------
1 | 0:00.00 | 3:26.62 | 0 | 15511
2 | 3:26.62 | 3:51.43 | 15512 | 32879
3 | 7:18.30 | 4:18.25 | 32880 | 52254
4 | 11:36.55 | 4:18.45 | 52255 | 71649
5 | 15:55.25 | 4:15.37 | 71650 | 90811
6 | 20:10.62 | 4:40.55 | 90812 | 111866
7 | 24:51.42 | 4:03.63 | 111867 | 130154
8 | 28:55.30 | 3:30.70 | 130155 | 145974
9 | 32:26.25 | 4:34.00 | 145975 | 166524
10 | 37:00.25 | 3:58.05 | 166525 | 184379
11 | 40:58.30 | 3:57.70 | 184380 | 202224
12 | 44:56.25 | 3:39.12 | 202225 | 218661
13 | 48:35.37 | 3:38.05 | 218662 | 235016
14 | 52:13.42 | 3:43.65 | 235017 | 251806
15 | 55:57.32 | 3:47.32 | 251807 | 268863


Характеристики диапазона извлечения и сообщения об ошибках

Выбранный диапазон

Имя файла C:\Documents and Settings\Vladimir\Рабочий стол\Новая папка\Фристайл - Грош Цена Тебе.wav

Пиковый уровень 87.5 %
Качество диапазона 100.0 %
CRC копии 23AB160D
Копирование... OK

Ошибок не произошло

Конец отчёта
Tomas вне форума   Ответить с цитированием
Старый 24.11.2009, 09:23   #10
Forvarder
Активный
 

Регистрация: 24.11.2009
Сообщений: 8
Сказал(а) спасибо: 0
Поблагодарили 0 раз(а) в 0 сообщениях
Forvarder на пути к лучшему
По умолчанию

А Казаченко нужен весь?
Forvarder вне форума   Ответить с цитированием
Ответ

Закладки

Метки
альбомы, бесплатно, cue, flac, поп, lossless, скачать, фристайл, rapidshare, дискография

Опции темы
Опции просмотра

Ваши права в разделе
Вы не можете создавать новые темы
Вы не можете отвечать в темах
Вы не можете прикреплять вложения
Вы не можете редактировать свои сообщения

BB коды Вкл.
Смайлы Вкл.
[IMG] код Вкл.
HTML код Выкл.

Быстрый переход


Часовой пояс GMT, время: 20:28.


Powered by vBulletin® Version 3.8.2
Copyright ©2000 - 2021, Jelsoft Enterprises Ltd. Перевод: zCarot
Rambler's Top100 Республика Татарстан - Каталог сайтов