Все Тут Online
Все Тут Online
Новые сообщения
Все сообщения за последних 24 часа
Расширенный Поиск

   
Меню сайта:
Главная
Форум
Чат
- Online приложения:
- Игры
- Выбор стиля:
- FAQ
- Для начинающих

Вернуться   Все Тут Online > CD (Компакт диски) Lossless - МУЗЫКА БЕЗ ПОТЕРИ КАЧЕСТВА > ШАНСОН, АВТОРСКАЯ и ВОЕННАЯ ПЕСНЯ (Lossless) > Отечественный шансон (lossless)

Старый 29.09.2009, 20:02   #1
Tomas
вечная память
 
Аватар для Tomas
 

Регистрация: 19.11.2008
Адрес: СССР
Сообщений: 8,569
Сказал(а) спасибо: 1,498
Поблагодарили 6,284 раз(а) в 2,125 сообщениях
Tomas репутация неоспоримаTomas репутация неоспоримаTomas репутация неоспоримаTomas репутация неоспоримаTomas репутация неоспоримаTomas репутация неоспоримаTomas репутация неоспоримаTomas репутация неоспоримаTomas репутация неоспоримаTomas репутация неоспоримаTomas репутация неоспорима
По умолчанию Сборник В пивбаре 1997 (Lossless)



Исполнитель Various Artists
Альбом В пивбаре 1997
Жанр Шансон
Содержание
01.Михаил Шелег - Жигули
02.Слава Медяник - Москва товарная
03.Наталья Лещенко - Лётчики-налётчики
04.Евгений Фокин - Томный напиток
05.гр.Русская изба - Ларёчек
06.Владимир Черняков - Наташка
07.Анна Закирова - Дядя Жора
08.Владимир Кирилов - Приходите, друзья
09.Галина Рома - Ресторанчик
10.гр.Иван-Иван - Налей
11.Валентина Григоренко - Ванька
12.Игорь Малинин - Кочумай
14.Анжела Бабич - Сало
15.Виктор Королёв - Сонька-Ручка Золотая
13 трек в треклисте пропущен.

Добавлена опция для восстановления 3%
EAC, FLAC, CUE, LOG, Covers
Сканы в архиве




Ссылка и пароль:
Скрытый текст (вы должны войти под своим логином или зарегистрироваться и иметь 1 сообщение(ий)):
У вас нет прав чтобы видеть скрытый текст, содержащейся здесь.


Цитата:
Exact Audio Copy V0.99 prebeta 5 from 4. May 2009

Отчёт EAC об извлечении, выполненном 29. сентября 2009, 19:30

Various / В пивбаре

Дисковод: TSSTcorpCDDVDW SH-S223F Adapter: 2 ID: 0

Режим чтения : Достоверность
Использование точного потока : Да
Отключение кэша аудио : Да
Использование указателей C2 : Нет

Коррекция смещения при чтении : 6
Способность читать области Lead-in и Lead-out : Нет
Заполнение пропущенных сэмплов тишиной : Да
Удаление блоков с тишиной в начале и конце : Нет
При вычислениях CRC использовались нулевые сэмплы : Да
Интерфейс : Встроенный Win32-интерфейс для Win NT/2000

Выходной формат : Внутренние WAV-операции
Формат сэмплов : 44.100 Гц; 16 бит; стерео


TOC извлечённого CD

Трек | Старт | Длительность | Начальный сектор | Конечный сектор
---------------------------------------------------------------------
1 | 0:00.10 | 4:02.52 | 10 | 18211
2 | 4:02.62 | 3:47.63 | 18212 | 35299
3 | 7:50.50 | 3:09.10 | 35300 | 49484
4 | 10:59.60 | 4:03.52 | 49485 | 67761
5 | 15:03.37 | 3:14.38 | 67762 | 82349
6 | 18:18.00 | 2:41.35 | 82350 | 94459
7 | 20:59.35 | 3:18.50 | 94460 | 109359
8 | 24:18.10 | 4:08.52 | 109360 | 128011
9 | 28:26.62 | 3:26.03 | 128012 | 143464
10 | 31:52.65 | 3:37.55 | 143465 | 159794
11 | 35:30.45 | 3:03.45 | 159795 | 173564
12 | 38:34.15 | 2:39.45 | 173565 | 185534
13 | 41:13.60 | 0:04.02 | 185535 | 185836
14 | 41:17.62 | 3:09.50 | 185837 | 200061
15 | 44:27.37 | 3:10.65 | 200062 | 214376


Характеристики диапазона извлечения и сообщения об ошибках

Выбранный диапазон

Имя файла C:\Documents and Settings\Vladimir\Рабочий стол\Сборник В пивбаре 1997\Various - В пивбаре.wav

Пиковый уровень 100.0 %
Качество диапазона 100.0 %
CRC копии D5E14308
Копирование... OK

Ошибок не произошло

Конец отчёта

Последний раз редактировалось vlf; 30.09.2009 в 16:04.
Tomas вне форума   Ответить с цитированием
Старый 07.01.2011, 14:11   #2
cthutq
Активный
 

Регистрация: 06.01.2011
Сообщений: 7
Сказал(а) спасибо: 6
Поблагодарили 0 раз(а) в 0 сообщениях
cthutq на пути к лучшему
По умолчанию

ссылки на пивко умерли.перезалейте плиз
cthutq вне форума   Ответить с цитированием
Старый 31.01.2014, 17:22   #3
sub
Активный
 

Регистрация: 31.01.2014
Сообщений: 1
Сказал(а) спасибо: 0
Поблагодарили 0 раз(а) в 0 сообщениях
sub на пути к лучшему
По умолчанию хорошо

Высший альбом
sub вне форума   Ответить с цитированием
Старый 10.01.2017, 22:18   #4
ttitiot
Активный
 

Регистрация: 10.01.2017
Сообщений: 1
Сказал(а) спасибо: 0
Поблагодарили 0 раз(а) в 0 сообщениях
ttitiot на пути к лучшему
По умолчанию

ttitiot вне форума   Ответить с цитированием
Ответ

Закладки

Опции темы
Опции просмотра

Ваши права в разделе
Вы не можете создавать новые темы
Вы не можете отвечать в темах
Вы не можете прикреплять вложения
Вы не можете редактировать свои сообщения

BB коды Вкл.
Смайлы Вкл.
[IMG] код Вкл.
HTML код Выкл.

Быстрый переход


Часовой пояс GMT, время: 17:38.


Powered by vBulletin® Version 3.8.2
Copyright ©2000 - 2021, Jelsoft Enterprises Ltd. Перевод: zCarot
Rambler's Top100 Республика Татарстан - Каталог сайтов